Torrent Search | Torrent Meta Search | Widgets

Kevin Hart Im A Grown Little Man DVDRip XviD SUMOTorrent

       
714.23 Mb
found 2 years ago
▲ seeders: 25 ▼ leechers:10
your vote:
real:
fake:
Direct Download
THANK YOU
download torrent
  Direct Downloadsponsored

Kevin Hart Im A Grown Little Man DVDRip XviD SUMOTorrent torrent

Information about the torrent Kevin Hart Im A Grown Little Man DVDRip XviD SUMOTorrent. A torrent file stores metadata that can be used from a BitTorrent client.

If you want to download the dvdrip torrent Kevin Hart Im A Grown Little Man DVDRip XviD SUMOTorrent you will need a torrent client.

Torrent Metasearch.

Torrent verified by h33t.com.

tracker
seeders
leechers
↓ torrent client compatible list

↑ hide torrent client compatible list

Help torrentproject.se to stay alive .
Add links of torrentproject.se in your favorite forum, blog, youtube, facebook, twitter etc.
reviews
140
torrent contents

Kevin.Hart.Im.A.Grown.Little.Man.DVDRip.XviD-SUMOTorrent torrent

Kevin.Hart.Im.A.Grown.Little.Man.DVDRip.XviD-SUMOTorrent
Kevin.Hart.Im.A.Grown.Little.Man.DVDRip.XviD-SUMOTorrent.avi701.15 Mb torrent search

Kevin.Hart.Im.A.Grown.Little.Man.DVDRip.XviD-SUMOTorrent
 Sample
Sample.Kevin.Hart.Im.A.avi13.08 Mb torrent search

Kevin.Hart.Im.A.Grown.Little.Man.DVDRip.XviD-SUMOTorrent
www.SUMOTorrent.com Kevin Hart Im A Grown.nfo1.95 Kb torrent search

Sample info:
Duration: 01:12:10.09, start: 0.000000, bitrate: 1358 kb/s
Stream #0.0: Video: mpeg4 (Advanced Simple Profile), yuv420p, 720x400 [PAR 1:1 DAR 9:5], 29.97 tbr, 29.97 tbn, 29.98 tbc
Stream #0.1: Audio: mp3, 44100 Hz, stereo, s16, 128 kb/s
screenshots
Kevin Hart Im A torrent screenshot 00039F04BD290A89818BF33F8FD655A1DBB5B924 Kevin Hart Im A  torrent screenshot 00039f04bd290a89818bf33f8fd655a1dbb5b924 torrent Kevin Hart Im A
Kevin.Hart.Im.A.Grown.Little.Man.DVDRip.XviD-SUMOTorrent images are auto generated please report any inapropriate images
 

related search cloud

 kevin  hart  sumotorrent  grown  xvid  little  dvdrip  sample