Torrent Search | Torrent Meta Search | Widgets

Zooskool Stray X The Record

277.72 Mb
found 1 year ago
▲ seeders: 1 ▼ leechers:1
your vote:
real:
fake:
Direct Download
THANK YOU
download torrent
  Direct Downloadsponsored

Zooskool Stray X The Record torrent

Information about the torrent Zooskool Stray X The Record. Seeders, leechers and torrent status is updated several times per day.

If you want to download the video torrent Zooskool Stray X The Record you will need a torrent client.

Torrent Metasearch.

tracker
seeders
leechers
↓ torrent client compatible list

↑ hide torrent client compatible list

Help torrentproject.se to stay alive .
Add links of torrentproject.se in your favorite forum, blog, youtube, facebook, twitter etc.
reviews
140
torrent contents

Zooskool Stray X - The Record.avi torrent

Zooskool Stray X - The Record.avi277.72 Mb torrent search

Sample info:
Duration: 00:26:17.28, start: 0.000000, bitrate: 1477 kb/s
Stream #0.0: Video: mpeg4, yuv420p, 720x576 [PAR 1:1 DAR 5:4], 25 fps, 25 tbr, 25 tbn, 30k tbc
Stream #0.1: Audio: mp3, 48000 Hz, 2 channels, s16, 224 kb/s
title	: 
screenshots
Zooskool Stray X The torrent screenshot 008698BAC003CE064DF1175415FE86318237B35E Zooskool Stray X The  torrent screenshot 008698bac003ce064df1175415fe86318237b35e torrent Zooskool Stray X The
Zooskool Stray X - The Record.avi images are auto generated please report any inapropriate images
 

related search cloud

 record  stray  zooskool