Torrent Search | Torrent Meta Search | Widgets

Baeb Lana Rhoades Flirt And Squirt 16 07 (2017) rq

       
313.24 Mb
found 12 days ago
▲ seeders: 376 ▼ leechers:46
your vote:
real:
fake:
download torrent

Baeb Lana Rhoades Flirt And Squirt 16 07 (2017) rq torrent

Information about the torrent Baeb Lana Rhoades Flirt And Squirt 16 07 (2017) rq. Seeders, leechers and torrent status is updated everyday.

If you want to download the video torrent Baeb Lana Rhoades Flirt And Squirt 16 07 (2017) rq you will need a torrent client.

Torrent Metasearch.

Torrent verified by thepiratebay.se.

tracker
seeders
leechers
↓ torrent client compatible list

↑ hide torrent client compatible list

torrent contents

[Baeb] Lana Rhoades - Flirt And Squirt (16.07.2017) rq.mp4 torrent

[Baeb] Lana Rhoades - Flirt And Squirt (16.07.2017) rq.mp4313.24 Mb torrent search

Sample info:
Duration: 00:24:32.72, start: 0.000000, bitrate: 1784 kb/s
Stream #0:0	: Video: h264 (Constrained Baseline) (avc1 / 0x31637661), yuv420p(tv, bt709), 852x480 [SAR 1:1 DAR 71:40], 1684 kb/s, 59.94 fps, 59.94 tbr, 60k tbn, 119.88 tbc (default)
creation_time	: 2017-07-06 03:50:14
Stream #0:1	: Audio: aac (LC) (mp4a / 0x6134706D), 48000 Hz, stereo, fltp, 95 kb/s (default)
creation_time	: 2017-07-06 03:50:14
screenshots
Images are auto generated please report any inapropriate images
 

related search cloud

 squirt  flirt  rhoades  lana  baeb