Torrent Search | Torrent Meta Search | Widgets

Sasuke Jam 18 Yukina Mori Yuri Aine Yuu Sakura SSKJ018 DVDRip XviD JAV Uncensored JapanX

1.36 Gb
found 3 years ago
▲ seeders: 3 ▼ leechers:2
your vote:
real:
fake:
THANK YOU
download torrent
  Direct Downloadsponsored

Sasuke Jam 18 Yukina Mori Yuri Aine Yuu Sakura SSKJ018 DVDRip XviD JAV Uncensored JapanX torrent

Information about the torrent Sasuke Jam 18 Yukina Mori Yuri Aine Yuu Sakura SSKJ018 DVDRip XviD JAV Uncensored JapanX. Seeders, leechers and torrent status is updated several times per day.

If you want to download the dvdrip torrent Sasuke Jam 18 Yukina Mori Yuri Aine Yuu Sakura SSKJ018 DVDRip XviD JAV Uncensored JapanX you will need a torrent client.

Torrent Metasearch.

tracker
seeders
leechers
↓ torrent client compatible list

↑ hide torrent client compatible list

reviews
140
torrent contents

Sasuke.Jam.18.Yukina.Mori.Yuri.Aine.Yuu.Sakura.SSKJ018.DVDRip.XviD.JAV.Uncensored-JapanX torrent

Sasuke.Jam.18.Yukina.Mori.Yuri.Aine.Yuu.Sakura.SSKJ018.DVDRip.XviD.JAV.Uncensored-JapanX
front.jpg63.45 Kb torrent search
japanx-sskj018-cd1.avi697.31 Mb torrent search
japanx-sskj018-cd2.avi697.25 Mb torrent search
japanx-sskj018.nfo854 bytes torrent search

Sample info:
Duration: 00:59:53.32, start: 0.000000, bitrate: 1627 kb/s
Stream #0.0: Video: mpeg4, yuv420p, 640x352 [PAR 1:1 DAR 20:11], 29.97 tb(r)
Stream #0.1: Audio: mp3, 48000 Hz, stereo, 32 kb/s
you may be interested in these torrents seeders leechers size found
sheqing @ SSKJ 010 Sasuke Jam Vol 10     2 1 838.98 Mb 2 years ago

sheqing.-@-.SSKJ-010 Sasuke Jam Vol.10.avi


Sasuke Jam 17 SSKJ017 DVDRip XviD JAV Uncensored JapanX 1 3 696.77 Mb 3 years ago

front.jpg japanx-sskj017.avi japanx-sskj017.nfo


SSKJ 026 Sasuke Jam Vol 26 Wanna FCK Me Tonight Mai Misato 1 1 968.32 Mb 3 years ago

SSKJ-026.H264.avi 5hdcwj19y22m.jpg kfue2hm3j7um.jp


Sasuke Jam #8 Shirouto Hyakka 1 0 1.36 Gb 3 years ago

Sasuke Jam #8 - Shirouto Hyakka CD1.avi Sasuke Jam #8 - Shirouto Hyakka CD2.avi


Sasuke Jam 15 SSKJ015 DVDRip XviD JAV Uncensored JapanX 1 2 698.47 Mb 3 years ago

front.jpg japanx-sskj015.avi japanx-sskj015.nfo


Sasuke Jam #29 1 1 985.32 Mb 3 years ago

Sasuke Jam #29.avi


SSKJ 014 Sasuke Jam Vol 14 売春白書005 吉野もな 山本あおい 小嶋つかさ 1 2 993.73 Mb 2 years ago

2013-1月新片合集.chm 99BT工厂最



AVI SSKJ 011 Sasuke Jam Vol 11 Tsukasa Aoi Sanae @ CZ 1 0 939.32 Mb 3 years ago

SSKJ-011.H264.avi SSKJ-011.jpg SSKJ-011A.jpg


 

related search cloud

 japanx  xvid  uncensored  dvdrip  front  sakura  yukina  mori  yuri  aine