Torrent Search | Torrent Meta Search | Widgets

Sasuke Jam 18 Yukina Mori Yuri Aine Yuu Sakura SSKJ018 DVDRip XviD JAV Uncensored JapanX

1.36 Gb
found 2 years ago
▲ seeders: 2 ▼ leechers:2
your vote:
real:
fake:
Direct Download
THANK YOU
download torrent
  Direct Downloadsponsored

Sasuke Jam 18 Yukina Mori Yuri Aine Yuu Sakura SSKJ018 DVDRip XviD JAV Uncensored JapanX torrent

Information about the torrent Sasuke Jam 18 Yukina Mori Yuri Aine Yuu Sakura SSKJ018 DVDRip XviD JAV Uncensored JapanX. Seeders, leechers and torrent status is updated several times per day.

If you want to download the dvdrip torrent Sasuke Jam 18 Yukina Mori Yuri Aine Yuu Sakura SSKJ018 DVDRip XviD JAV Uncensored JapanX you will need a torrent client.

Torrent Metasearch.

tracker
seeders
leechers
↓ torrent client compatible list

↑ hide torrent client compatible list

Help torrentproject.se to stay alive .
Add links of torrentproject.se in your favorite forum, blog, youtube, facebook, twitter etc.
reviews
140
torrent contents

Sasuke.Jam.18.Yukina.Mori.Yuri.Aine.Yuu.Sakura.SSKJ018.DVDRip.XviD.JAV.Uncensored-JapanX torrent

Sasuke.Jam.18.Yukina.Mori.Yuri.Aine.Yuu.Sakura.SSKJ018.DVDRip.XviD.JAV.Uncensored-JapanX
front.jpg63.45 Kb torrent search
japanx-sskj018-cd1.avi697.31 Mb torrent search
japanx-sskj018-cd2.avi697.25 Mb torrent search
japanx-sskj018.nfo854 bytes torrent search

Sample info:
Duration: 00:59:53.32, start: 0.000000, bitrate: 1627 kb/s
Stream #0.0: Video: mpeg4, yuv420p, 640x352 [PAR 1:1 DAR 20:11], 29.97 tb(r)
Stream #0.1: Audio: mp3, 48000 Hz, stereo, 32 kb/s
you may be interested in these torrents seeders leechers size found
失身人面像@ sis001 com@Sasuke Jam Series Vol 4 素人百花 001 星野あかり 2 6 460.63 Mb 14 days ago

1.jpg 2.jpg SIS001影视联


Sasuke Jam 15 SSKJ015 DVDRip XviD JAV Uncensored JapanX 1 4 698.47 Mb 3 years ago

front.jpg japanx-sskj015.avi japanx-sskj015.nfo


Sasuke Jam #29 1 1 985.32 Mb 3 years ago

Sasuke Jam #29.avi


lameizi@爱城@SSKJ 021 Sasuke Jam 21 S級素人生攝實錄第4彈 1 0 991.63 Mb 2 years ago

1.jpg 2.jpg SSKJ-021.H264.avi



Sasuke Jam #30 1 1 1.11 Gb 3 years ago

Sasuke Jam #30.avi


AVI SSKJ 011 Sasuke Jam Vol 11 Tsukasa Aoi Sanae @ CZ 1 0 939.32 Mb 3 years ago

SSKJ-011.H264.avi SSKJ-011.jpg SSKJ-011A.jpg


Sasuke Jam Vol 29 Chiharu Nakai SSKJ 029 1 2 987.82 Mb 3 years ago

[buhaypirata.net]-SSKJ-029.H264.avi 03347354092948749008.jpg


sheqing @ SSKJ 010 Sasuke Jam Vol 10     1 2 838.98 Mb 2 years ago

sheqing.-@-.SSKJ-010 Sasuke Jam Vol.10.avi


 

related search cloud

 japanx  xvid  uncensored  dvdrip  front  sakura  yukina  mori  yuri  aine