Torrent Search | Torrent Meta Search | Widgets

Sasuke Jam 18 Yukina Mori Yuri Aine Yuu Sakura SSKJ018 DVDRip XviD JAV Uncensored JapanX

1.36 Gb
found 3 years ago
▲ seeders: 1 ▼ leechers:1
your vote:
real:
fake:
download torrent

Sasuke Jam 18 Yukina Mori Yuri Aine Yuu Sakura SSKJ018 DVDRip XviD JAV Uncensored JapanX torrent

Information about the torrent Sasuke Jam 18 Yukina Mori Yuri Aine Yuu Sakura SSKJ018 DVDRip XviD JAV Uncensored JapanX. Seeders, leechers and torrent status is updated several times per day.

If you want to download the dvdrip torrent Sasuke Jam 18 Yukina Mori Yuri Aine Yuu Sakura SSKJ018 DVDRip XviD JAV Uncensored JapanX you will need a torrent client.

Torrent Metasearch.

No trackers with seeders or leechers have been found, this doesn't mean that the torrent Sasuke Jam 18 Yukina Mori Yuri Aine Yuu Sakura SSKJ018 DVDRip XviD JAV Uncensored JapanX is dead
reviews
140
torrent contents

Sasuke.Jam.18.Yukina.Mori.Yuri.Aine.Yuu.Sakura.SSKJ018.DVDRip.XviD.JAV.Uncensored-JapanX torrent

Sasuke.Jam.18.Yukina.Mori.Yuri.Aine.Yuu.Sakura.SSKJ018.DVDRip.XviD.JAV.Uncensored-JapanX
front.jpg63.45 Kb torrent search
japanx-sskj018-cd1.avi697.31 Mb torrent search
japanx-sskj018-cd2.avi697.25 Mb torrent search
japanx-sskj018.nfo854 bytes torrent search

Sample info:
Duration: 00:59:53.32, start: 0.000000, bitrate: 1627 kb/s
Stream #0.0: Video: mpeg4, yuv420p, 640x352 [PAR 1:1 DAR 20:11], 29.97 tb(r)
Stream #0.1: Audio: mp3, 48000 Hz, stereo, 32 kb/s
you may be interested in these torrents seeders leechers size found

Sasuke Jam 26 Mai Misato SSKJ026 DVDRip XviD JAV Uncensored JapanX    1 1 696.55 Mb 3 years ago

front.jpg japanx-sskj026.avi japanx-sskj026.nfo 0


Sasuke Jam 15 SSKJ015 DVDRip XviD JAV Uncensored JapanX 1 1 698.47 Mb 4 years ago

front.jpg japanx-sskj015.avi japanx-sskj015.nfo


Sasuke Jam #29    1 0 985.32 Mb 4 years ago

Sasuke Jam #29.avi


Sasuke Jam Vol 10 Paipan Wareme Deluxe Uncensored        1 2 838.98 Mb 3 years ago

Torrent downloaded from rarbg.com.txt sheqing@SSKJ-010 Sasuke Jam Vol.10.avi


AVI SSKJ 011 Sasuke Jam Vol 11 Tsukasa Aoi Sanae @ CZ 1 1 939.32 Mb 3 years ago

SSKJ-011.H264.avi SSKJ-011.jpg SSKJ-011A.jpg


sheqing @ SSKJ 010 Sasuke Jam Vol 10        1 1 838.98 Mb 3 years ago

sheqing.-@-.SSKJ-010 Sasuke Jam Vol.10.avi


sheqing@SSKJ 010 Sasuke Jam Vol 10    1 0 838.98 Mb 3 years ago

sheqing@SSKJ-010 Sasuke Jam Vol.10.avi


Sasuke Jam 22 Aya Miharu Reina Sarina SSKJ022 DVDRip XviD JAV Uncensored JapanX    1 1 1.36 Gb 3 years ago

front.jpg japanx-sskj022-cd1.avi jap


 

related search cloud

 japanx  xvid  uncensored  dvdrip  front  sakura  yukina  mori  yuri  aine