Torrent Search | Torrent Meta Search | Widgets

Sasuke Jam 18 Yukina Mori Yuri Aine Yuu Sakura SSKJ018 DVDRip XviD JAV Uncensored JapanX

1.36 Gb
found 2 years ago
▲ seeders: 1 ▼ leechers:1
your vote:
real:
fake:
Direct Download
THANK YOU
download torrent
  Direct Downloadsponsored

Sasuke Jam 18 Yukina Mori Yuri Aine Yuu Sakura SSKJ018 DVDRip XviD JAV Uncensored JapanX torrent

Information about the torrent Sasuke Jam 18 Yukina Mori Yuri Aine Yuu Sakura SSKJ018 DVDRip XviD JAV Uncensored JapanX. Seeders, leechers and torrent status is updated several times per day.

If you want to download the dvdrip torrent Sasuke Jam 18 Yukina Mori Yuri Aine Yuu Sakura SSKJ018 DVDRip XviD JAV Uncensored JapanX you will need a torrent client.

Torrent Metasearch.

tracker
seeders
leechers
↓ torrent client compatible list

↑ hide torrent client compatible list

Help torrentproject.se to stay alive .
Add links of torrentproject.se in your favorite forum, blog, youtube, facebook, twitter etc.
reviews
140
torrent contents

Sasuke.Jam.18.Yukina.Mori.Yuri.Aine.Yuu.Sakura.SSKJ018.DVDRip.XviD.JAV.Uncensored-JapanX torrent

Sasuke.Jam.18.Yukina.Mori.Yuri.Aine.Yuu.Sakura.SSKJ018.DVDRip.XviD.JAV.Uncensored-JapanX
front.jpg63.45 Kb torrent search
japanx-sskj018-cd1.avi697.31 Mb torrent search
japanx-sskj018-cd2.avi697.25 Mb torrent search
japanx-sskj018.nfo854 bytes torrent search

Sample info:
Duration: 00:59:53.32, start: 0.000000, bitrate: 1627 kb/s
Stream #0.0: Video: mpeg4, yuv420p, 640x352 [PAR 1:1 DAR 20:11], 29.97 tb(r)
Stream #0.1: Audio: mp3, 48000 Hz, stereo, 32 kb/s
you may be interested in these torrents seeders leechers size found
Sasuke Jam 3 Sweet Memory Kawori Natsuno SSKJ003 DVDRip XviD JAV Uncensored JapanX 4 1 696.38 Mb 4 years ago

front.jpg japanx-sskj003.avi japanx-ss


Sasuke Jam 15 SSKJ015 DVDRip XviD JAV Uncensored JapanX 2 2 698.47 Mb 3 years ago

front.jpg japanx-sskj015.avi japanx-sskj015.nfo


sheqing@SSKJ 010 Sasuke Jam Vol 10 2 1 838.98 Mb 2 years ago

sheqing@SSKJ-010 Sasuke Jam Vol.10.avi


Sasuke Jam Vol 4 Shirouto Hyakka 001 Akari Hoshino 2 2 700.44 Mb 4 years ago

Sasuke Jam Vol.4 Shirouto Hyakka 001 - Akari Hoshino.avi


Sasuke Jam 26 Mai Misato SSKJ026 DVDRip XviD JAV Uncensored JapanX 1 1 696.55 Mb 2 years ago

front.jpg japanx-sskj026.avi japanx-sskj026.nfo 0


Sasuke Jam 17 SSKJ017 DVDRip XviD JAV Uncensored JapanX 1 3 696.77 Mb 3 years ago

front.jpg japanx-sskj017.avi japanx-sskj017.nfo


Sasuke Jam #29 1 0 985.32 Mb 3 years ago

Sasuke Jam #29.avi


lameizi@爱城@SSKJ 021 Sasuke Jam 21 S級素人生攝實錄第4彈 1 0 991.63 Mb 2 years ago

1.jpg 2.jpg SSKJ-021.H264.avi


SSKJ 030 Sasuke Jam Vol 30 素人百花009 長谷川ルイRui 1 1 1.12 Gb 3 years ago

10月合集.mht 9月经典回顾.chm BT工厂-新地址


 

related search cloud

 japanx  xvid  uncensored  dvdrip  front  sakura  yukina  mori  yuri  aine