Torrent Search | Torrent Meta Search | Widgets

Gay Samir Gets Fucked By An Arab

389.58 Mb
found 4 years ago
▲ seeders: 1 ▼ leechers:0
your vote:
real:
fake:
download torrent

Gay Samir Gets Fucked By An Arab torrent

Information about the torrent Gay Samir Gets Fucked By An Arab. Seeders, leechers and torrent status is updated several times per day.

If you want to download the video torrent Gay Samir Gets Fucked By An Arab you will need a torrent client.

Torrent Metasearch.

comments/reviews
140
torrent contents

Gay - Samir Gets Fucked By An Arab.avi torrent

Gay - Samir Gets Fucked By An Arab.avi389.58 Mb torrent search

Sample info:
Duration: 00:29:03.24, start: 0.000000, bitrate: 1874 kb/s
Stream #0.0: Video: mpeg4, yuv420p, 720x576 [PAR 1:1 DAR 5:4], 25 tbr, 25 tbn, 25 tbc
Stream #0.1: Audio: mp3, 48000 Hz, 2 channels, s16, 128 kb/s
screenshots
Images are auto generated please report any inapropriate images
 

related search cloud

 arab  fucked  gets  samir