Torrent Search | Torrent Meta Search | Widgets

臺灣新竹奶神妹性愛自拍全集

441.97 Mb
found 1 year ago
▲ seeders: 4 ▼ leechers:2
your vote:
real:
fake:
Direct Download
THANK YOU
download torrent
  Direct Downloadsponsored

臺灣新竹奶神妹性愛自拍全集 torrent

Information about the torrent 臺灣新竹奶神妹性愛自拍全集. Seeders, leechers and torrent status is updated several times per day.

If you want to download the video torrent 臺灣新竹奶神妹性愛自拍全集 you will need a torrent client.

Torrent Metasearch.

tracker
seeders
leechers
↓ torrent client compatible list

↑ hide torrent client compatible list

Help torrentproject.se to stay alive .
Add links of torrentproject.se in your favorite forum, blog, youtube, facebook, twitter etc.
reviews
anonymous 02 Jun 2014, 04:06:41
TKS
anonymous 31 May 2014, 05:05:57
THANKYOU~
anonymous 28 Sep 2013, 04:09:24
THANKYOU~
140
torrent contents

臺灣新竹奶神妹性愛自拍全集 torrent

臺灣新竹奶神妹性愛自拍全集
01.avi54.29 Mb torrent search
02.avi24.15 Mb torrent search
03.avi31.14 Mb torrent search
04.avi80.54 Mb torrent search
05.mp451.39 Mb torrent search
06.mp431.49 Mb torrent search
07.mp466.44 Mb torrent search
08.avi82.99 Mb torrent search
09.avi18.87 Mb torrent search
1141638@18p2p.txt360 bytes torrent search
1141638@18p2p.url198 bytes torrent search
截圖.jpg678.35 Kb torrent search

Sample info:
Duration: 00:15:37.32, start: 0.000000, bitrate: 742 kb/s
Stream #0.0: Video: mpeg4 (Simple Profile), yuv420p, 480x272 [PAR 1:1 DAR 30:17], 25 tbr, 25 tbn, 25 tbc
Stream #0.1: Audio: mp3, 48000 Hz, stereo, s16, 128 kb/s
screenshots
臺灣新竹奶神妹性愛自拍全集 torrent screenshot 04DE568F7FB1B9BE647EBB91552073F00C0ED929 臺灣新竹奶神妹性愛自拍全集 torrent screenshot 04de568f7fb1b9be647ebb91552073f00c0ed929 torrent 臺灣新竹奶神妹性愛自拍全集
臺灣新竹奶神妹性愛自拍全集 images are auto generated please report any inapropriate images
you may be interested in these torrents seeders leechers size found
臺灣新竹奶神妹性愛自拍全集 1 0 442.25 Mb 1 year ago

01.avi 02.avi 03.avi 04.avi 05.mp4