Torrent Search | Torrent Meta Search | Widgets

Cento x Cento

       
29.87 Gb
found 4 years ago
▲ seeders: 0 ▼ leechers:1
your vote:
real:
fake:
download torrent

Cento x Cento torrent

Information about the torrent Cento x Cento. Seeders, leechers and torrent status is updated everyday.

If you want to download the video torrent Cento x Cento you will need a torrent client.

Torrent Metasearch.

.

tracker
seeders
leechers
↓ torrent client compatible list

↑ hide torrent client compatible list

comments/reviews
anonymous 09 Jan 2014, 08:01:26
4 Amici Trans Fottenti.mpg
140
torrent contents

Cento x Cento torrent

Cento x Cento
 4 Amici Trans...Fottenti
4 Amici Trans Fottenti.mpg879.51 Mb torrent search
_4 Amici TransFottenti.all.jpg.jpg471.83 Kb torrent search
cxc255copy.jpg122.33 Kb torrent search

Cento x Cento
 A Tutta Sborra
Cento x Cento - Turista per caso - A Tutta Sborra.mpg885.47 Mb torrent search
Cento x Cento - Turista per caso - A Tutta Sborra.mpg.jpg450.81 Kb torrent search
cxd293copy.jpg120.52 Kb torrent search

Cento x Cento
 Al di là della Fica
_Al di là della Fica.all.jpg.jpg457.74 Kb torrent search
Al Di La Della Fica.avi1.31 Gb torrent search
cxd279copy.jpg113.88 Kb torrent search

Cento x Cento
 Amiche Di Giochi Perversi
Amiche Di Giochi Perversi .avi1.37 Gb torrent search
Amiche Di Giochi Perversi .avi.jpg487.59 Kb torrent search
cxd430copy.jpg130.05 Kb torrent search

Cento x Cento
 Anime Perse
Cento x Cento - Shemale - Anime perse.avi1.09 Gb torrent search
Cento x Cento - Shemale - Anime perse.avi.jpg439.42 Kb torrent search
cxd381copy.jpg120.95 Kb torrent search

Cento x Cento
 Arrapatissimi
Arrapatissimi .avi1.31 Gb torrent search
Arrapatissimi .avi.jpg474.47 Kb torrent search
cxd274copy.jpg120.06 Kb torrent search

Cento x Cento
 Chi C'è C'è
cxc241copy.jpg123.3 Kb torrent search
New Shemale Cento X Cento Chi C'e C'e.mpg768.1 Mb torrent search
New Shemale Cento X Cento Chi C'e C'e.mpg.jpg424.58 Kb torrent search

Cento x Cento
 Chi l'Avrebbe Detto!
cxd321copy.jpg158.36 Kb torrent search
Turista per caso - Chi L'avrebbe Detto(Shemale).avi940.95 Mb torrent search
Turista per caso - Chi L'avrebbe Detto(Shemale).avi.jpg467.42 Kb torrent search

Cento x Cento
 Chiavata Bestiale con un Trans
CENTO X CENTO--CHIAVATA BESTIALE CON UN TRANS.avi899.49 Mb torrent search
CENTO X CENTO--CHIAVATA BESTIALE CON UN TRANS.avi.jpg446.24 Kb torrent search
cxd486copy.jpg116.77 Kb torrent search

Cento x Cento
 Cuore di Mamma
CUORE DI MAMMA.avi1.37 Gb torrent search
CUORE DI MAMMA.avi.jpg474.24 Kb torrent search
cxd485copy.jpg130.04 Kb torrent search

Cento x Cento
 Da Bosco e da Riviera
_Da Bosco e da Riviera.all.jpg.jpg424.31 Kb torrent search
cxd419copy.jpg132.32 Kb torrent search
da bosco e da riviera.avi1.37 Gb torrent search

Cento x Cento
 Donne Mancate
Cento x Cento - Donne Mancate-(shemlae).avi1.05 Gb torrent search
Cento x Cento - Donne Mancate-(shemlae).avi.jpg419.24 Kb torrent search
cxd466copy.jpg118.07 Kb torrent search

Cento x Cento
 Fatti Su Misura
Cento x Cento - Fatti Su Misura .avi1.35 Gb torrent search
Cento x Cento - Fatti Su Misura .avi.jpg495.96 Kb torrent search
cxc261copy.jpg125.68 Kb torrent search

Cento x Cento
 Femminelli Freschi Freschi
Cento X Cento -Femminelli Freschi Freschi.avi1.01 Gb torrent search
Cento X Cento -Femminelli Freschi Freschi.avi.jpg423.07 Kb torrent search
cxd496copy.jpg119.36 Kb torrent search

Cento x Cento
 Il Trenino Dell'amore
_Il Trenino Dell'amore.all.jpg.jpg405.84 Kb torrent search
cxc167cop.jpg33.6 Kb torrent search
Il Trenino Dell'amore .avi806.23 Mb torrent search

Cento x Cento
 Incontri di Ogni Tipo
_Incontri di Ogni Tipo.all.jpg.jpg516.1 Kb torrent search
cxd414copy.jpg101.03 Kb torrent search
she-incontri di ogni tipo.mp4996.84 Mb torrent search

Cento x Cento
 INDOVINA CHI VIENE A CENA
cxc154cop.jpg46.34 Kb torrent search
hhh.txt738 bytes torrent search
Indovina Chi Viene A Cena - Parte 2 (Maurizia Paradiso & Donna D' Enrico).mpg693.35 Mb torrent search
0

Sample info:
Duration: 00:56:29.00, start: 0.000000, bitrate: 3465 kb/s
Stream #0.0: Video: mpeg4, yuv420p, 720x544 [PAR 1:1 DAR 45:34], 25 tbr, 25 tbn, 25 tbc
Stream #0.1: Audio: ac3, 48000 Hz, stereo, s16, 192 kb/s
screenshots
Images are auto generated please report any inapropriate images
 

related search cloud

 cento  copy  shemale  freschi  trans  caso  turista  donne  mancate  riviera