Torrent Search | Torrent Meta Search | Widgets

BBC Galapagos

6.61 Gb
found 4 years ago
▲ seeders: 1 ▼ leechers:0
your vote:
real:
fake:
download torrent

BBC Galapagos torrent

Information about the torrent BBC Galapagos. A torrent file stores metadata that can be used from a BitTorrent client.

If you want to download the video torrent BBC Galapagos you will need a torrent client.

Torrent Metasearch.

tracker
seeders
leechers
↓ torrent client compatible list

↑ hide torrent client compatible list

comments/reviews
140
torrent contents

BBC_Galapagos torrent

BBC_Galapagos
3.BBC.Галапагосы - Силы несущие перемены (2007) HDDVDRip.720.Rus.Eng.mkv2.2 Gb torrent search
2.BBC.Галапагосы - Острова изменившие мир (2007) HDDVDRip.720.Rus.Eng.mkv2.2 Gb torrent search
1.BBC.Галапагосы - Рожденные в огне (2007) HDDVDRip.720.Rus.Eng.mkv2.2 Gb torrent search

Sample info:
Duration: 00:48:51.13, start: 0.000000, bitrate: N/A
Stream #0.0(eng): Video: h264, yuv420p, 1280x720 [PAR 1:1 DAR 16:9], 29.97 tb(r)
Stream #0.1(rus): Audio: mp3, 44100 Hz, stereo
Stream #0.2(eng): Audio: ac3, 48000 Hz, stereo
screenshots
Images are auto generated please report any inapropriate images
 

related search cloud

 hddvdrip  galapagos