Torrent Search | Torrent Meta Search | Widgets

FTV 2012 04 07 Cassie A Natural Charmer

       
6.48 Gb
found 3 years ago
▲ seeders: 1 ▼ leechers:0
your vote:
real:
fake:
THANK YOU
download torrent

FTV 2012 04 07 Cassie A Natural Charmer torrent

Information about the torrent FTV 2012 04 07 Cassie A Natural Charmer. Seeders, leechers and torrent status is updated everyday.

If you want to download the video torrent FTV 2012 04 07 Cassie A Natural Charmer you will need a torrent client.

Torrent Metasearch.

.

tracker
seeders
leechers
↓ torrent client compatible list

↑ hide torrent client compatible list

reviews
140
torrent contents

FTV - 2012-04-07 - Cassie - A Natural Charmer torrent

FTV - 2012-04-07 - Cassie - A Natural Charmer
 2.Comfy With FTV
08hd.wmv714.78 Mb torrent search
04hd.wmv614.29 Mb torrent search
03hd.wmv543 Mb torrent search

FTV - 2012-04-07 - Cassie - A Natural Charmer
 1.Orgasmic Teen Girl
01hd.wmv535.39 Mb torrent search
07hd.wmv517.4 Mb torrent search

FTV - 2012-04-07 - Cassie - A Natural Charmer
 2.Comfy With FTV
06hd.wmv492.52 Mb torrent search
01hd.wmv477.15 Mb torrent search

FTV - 2012-04-07 - Cassie - A Natural Charmer
 1.Orgasmic Teen Girl
02hd.wmv431.81 Mb torrent search
08hd.wmv348.17 Mb torrent search
06hd.wmv339.43 Mb torrent search

FTV - 2012-04-07 - Cassie - A Natural Charmer
 2.Comfy With FTV
05hd.wmv335.73 Mb torrent search

FTV - 2012-04-07 - Cassie - A Natural Charmer
 1.Orgasmic Teen Girl
03hd.wmv327.27 Mb torrent search
05w.wmv258.42 Mb torrent search
04hd.wmv247.24 Mb torrent search

FTV - 2012-04-07 - Cassie - A Natural Charmer
 2.Comfy With FTV
07hd.wmv234.55 Mb torrent search
02hd.wmv220.37 Mb torrent search

FTV - 2012-04-07 - Cassie - A Natural Charmer
1cassie.jpg205.44 Kb torrent search

FTV - 2012-04-07 - Cassie - A Natural Charmer
 2.Comfy With FTV
cassiebkg2.jpg63.01 Kb torrent search

FTV - 2012-04-07 - Cassie - A Natural Charmer
 1.Orgasmic Teen Girl
cassiebkg1.jpg47.49 Kb torrent search

Sample info:
Duration: 00:12:09.53, start: 5.000000, bitrate: 8218 kb/s
Stream #0.0: Video: wmv3, yuv420p, 1920x1080, 8000 kb/s, PAR 1:1 DAR 16:9, 30 tbr, 1k tbn, 1k tbc
Stream #0.1: Audio: wmapro, 48000 Hz, stereo, flt, 192 kb/s
screenshots
FTV 2012 04 07 torrent screenshot 07E799E10E51BC799A1AF505955F88FC43E22BB8 FTV 2012 04 07  torrent screenshot 07e799e10e51bc799a1af505955f88fc43e22bb8 torrent FTV 2012 04 07
Images are auto generated please report any inapropriate images
you may be interested in these torrents seeders leechers size found
allgirlmassage Cassie Laine Brittney Amber Cassie's first time! 2013 0819 HD 1080p 0 1 1.52 Gb 1 year ago

allgirlmassage-130819-sexors.mp4 [allgi


 

related search cloud

 caie  charmer  natural  comfy  orgasmic  girl  caiebkg