Torrent Search | Torrent Meta Search | Widgets

Green Lantern (2011) DVDRip NL subs DutchReleaseTeam Actie&SciFi

       
703.43 Mb
found 2 years ago
▲ seeders: 5 ▼ leechers:1
your vote:
real:
fake:
Direct Download
THANK YOU
download torrent
  Direct Downloadsponsored

Green Lantern (2011) DVDRip NL subs DutchReleaseTeam Actie&SciFi torrent

Information about the torrent Green Lantern (2011) DVDRip NL subs DutchReleaseTeam Actie&SciFi. Seeders, leechers and torrent status is updated everyday.

If you want to download the dvdrip torrent Green Lantern (2011) DVDRip NL subs DutchReleaseTeam Actie&SciFi you will need a torrent client.

Torrent Metasearch.

.

tracker
seeders
leechers
↓ torrent client compatible list

↑ hide torrent client compatible list

Help torrentproject.se to stay alive .
Add links of torrentproject.se in your favorite forum, blog, youtube, facebook, twitter etc.
reviews
140
torrent contents

Green Lantern (2011) DVDRip NL subs DutchReleaseTeam [Actie&SciFi] torrent

Green Lantern (2011) DVDRip NL subs DutchReleaseTeam [Actie&SciFi]
Green Lantern (2011) DVDRip NL subs DutchReleaseTeam [Actie&SciFi].avi700.24 Mb torrent search
sample.avi2.88 Mb torrent search
Koedje.png115.78 Kb torrent search
Multimediacafe.png105.06 Kb torrent search
Screenshot1.jpg33.53 Kb torrent search
Screenshot3.jpg25.64 Kb torrent search
Screenshot4.jpg22.78 Kb torrent search
Screenshot2.jpg17.02 Kb torrent search
DutchReleaseTeam NFO.txt474 bytes torrent search
Torrent downloaded from Demonoid.me.txt46 bytes torrent search

Sample info:
Duration: 01:53:59.92, start: 0.000000, bitrate: 858 kb/s
Stream #0.0: Video: mpeg4, yuv420p, 640x320 [PAR 1:1 DAR 2:1], 23.98 tbr, 23.98 tbn, 23.98 tbc
Stream #0.1: Audio: mp3, 48000 Hz, 2 channels, s16, 117 kb/s
screenshots
Green Lantern 2011 DVDRip torrent screenshot 081AC3594FCB8405D5F39009C9A6D18A9253C596 Green Lantern 2011 DVDRip  torrent screenshot 081ac3594fcb8405d5f39009c9a6d18a9253c596 torrent Green Lantern 2011 DVDRip
Green Lantern (2011) DVDRip NL subs DutchReleaseTeam [Actie&SciFi] images are auto generated please report any inapropriate images
 

related search cloud

 screenshot  dutchreleaseteam  actie  green  scifi  lantern  dvdrip  subs  demonoid  torrent