Torrent Search | Torrent Meta Search | Widgets

Musician Transformation Collection learn piano course lessons keyboard

       
3.34 Gb
found 2 years ago
▲ seeders: 28 ▼ leechers:9
your vote:
real:
fake:
Direct Download
THANK YOU
download torrent
  Direct Downloadsponsored

Musician Transformation Collection learn piano course lessons keyboard torrent

Information about the torrent Musician Transformation Collection learn piano course lessons keyboard. Seeders, leechers and torrent status is updated everyday.

If you want to download the video torrent Musician Transformation Collection learn piano course lessons keyboard you will need a torrent client.

Torrent Metasearch.

.

tracker
seeders
leechers
↓ torrent client compatible list

↑ hide torrent client compatible list

Help torrentproject.se to stay alive .
Add links of torrentproject.se in your favorite forum, blog, youtube, facebook, twitter etc.
reviews
anonymous 09 Apr 2014, 12:04:24
very Good
anonymous 09 Apr 2014, 12:04:24
very Good
140
torrent contents

Musician Transformation Collection - learn piano course lessons keyboard - hearandplay.com torrent

Musician Transformation Collection - learn piano course lessons keyboard - hearandplay.com
 01 - Fundamentals Factory
02 - Note Names, Sharps andFlats, Whole Steps and Half Steps, 12 Keys Goals.mp4147.44 Mb torrent search
03 - Major Scales, Relative Minor, Minor Scales.mp4116.02 Mb torrent search
05 - Intervals and Distance.mp4105.57 Mb torrent search
04 - Number System.mp497.73 Mb torrent search
01 - Introduction.mp452.69 Mb torrent search
06 - Mastery Summary.mp433.74 Mb torrent search
cover1.jpg15.15 Kb torrent search

Musician Transformation Collection - learn piano course lessons keyboard - hearandplay.com
 02 - Chord County
06 - Seventh Chord Voicings.mp4160.27 Mb torrent search
11 - Mastery Summary.mp4100.88 Mb torrent search
07 - Ninth Chord Voicings.mp499.17 Mb torrent search
02 - Chord Quality vs Quantity.mp493.41 Mb torrent search
08 - Eleventh Chord Voicings.mp489.89 Mb torrent search
04 - Chord Inversions.mp461.56 Mb torrent search
10 - Common Altered Chords.mp457.32 Mb torrent search
03 - Diminished vs Augmented Chords.mp449.83 Mb torrent search
05 - Chord Classes.mp446.7 Mb torrent search
09 - Thirteenth Chord Voicings.mp446.65 Mb torrent search
01 - Introduction.mp439.65 Mb torrent search
cover2.jpg17.44 Kb torrent search

Musician Transformation Collection - learn piano course lessons keyboard - hearandplay.com
 03 - Pattern Paradise
03 - Circle of Fifths, Circular Movement.mp4175.22 Mb torrent search
06 - Common Advanced Progressions.mp4169.6 Mb torrent search
02 - Diatonic Chords.mp4126.04 Mb torrent search
05 - Common Circular Progressions.mp4124.31 Mb torrent search
08 - The Art of Fancy Chords (Placement).mp487.37 Mb torrent search

Sample info:
Duration: 00:53:11.00, start: 0.000000, bitrate: 743 kb/s
Stream #0.0(eng): Audio: aac, 44100 Hz, stereo, s16, 104 kb/s
creation_time	: 2009-10-27 14:36:14
Stream #0.1(eng): Video: h264 (Main), yuv420p, 640x480, 643 kb/s, 27.14 fps, 29.97 tbr, 2997 tbn, 5994 tbc
creation_time	: 2009-10-27 14:36:14
screenshots
Musician Transformation Collection learn torrent screenshot 082458C28B1C4DD37D2BCB4C0CF17DEFCFE52B11 Musician Transformation Collection learn  torrent screenshot 082458c28b1c4dd37d2bcb4c0cf17defcfe52b11 torrent Musician Transformation Collection learn
Musician Transformation Collection - learn piano course lessons keyboard - hearandplay.com images are auto generated please report any inapropriate images
you may be interested in these torrents seeders leechers size found
New 0 1 16.92 Gb 2 years ago

Willie Myette - 24 Jazz Piano Lessons.avi Gospel_Piano_Videos_Collection_Pamela_Davis.mpg