Torrent Search | Torrent Meta Search | Widgets

Ifeelmyself Wendy Sath

       
100.84 Mb
found 4 years ago
▲ seeders: 1 ▼ leechers:0
your vote:
real:
fake:
download torrent

Ifeelmyself Wendy Sath torrent

Information about the torrent Ifeelmyself Wendy Sath. Seeders, leechers and torrent status is updated everyday.

If you want to download the video torrent Ifeelmyself Wendy Sath you will need a torrent client.

Torrent Metasearch.

Torrent verified by kat.ph.

No trackers with seeders or leechers have been found, this doesn't mean that the torrent Ifeelmyself Wendy Sath is dead
comments/reviews
140
torrent contents

Ifeelmyself - Wendy Sath.avi torrent

Ifeelmyself - Wendy Sath.avi100.84 Mb torrent search

Sample info:
Duration: 00:14:15.20, start: 0.000000, bitrate: 989 kb/s
Stream #0.0: Video: mpeg4, yuv420p, 640x480 [PAR 1:1 DAR 4:3], 25 fps, 25 tbr, 25 tbn, 30k tbc
Stream #0.1: Audio: mp3, 48000 Hz, stereo, s16, 192 kb/s
screenshots
Images are auto generated please report any inapropriate images
 

related search cloud

 sath  wendy  ifeelmyself