Torrent Search | Torrent Meta Search | Widgets

Ifeelmyself Wendy Sath

       
100.84 Mb
found 2 years ago
▲ seeders: 3 ▼ leechers:0
your vote:
real:
fake:
Direct Download
THANK YOU
download torrent
  Direct Downloadsponsored

Ifeelmyself Wendy Sath torrent

Information about the torrent Ifeelmyself Wendy Sath. Seeders, leechers and torrent status is updated everyday.

If you want to download the video torrent Ifeelmyself Wendy Sath you will need a torrent client.

Torrent Metasearch.

Torrent verified by kat.ph.

tracker
seeders
leechers
↓ torrent client compatible list

↑ hide torrent client compatible list

Help torrentproject.se to stay alive .
Add links of torrentproject.se in your favorite forum, blog, youtube, facebook, twitter etc.
reviews
140
torrent contents

Ifeelmyself - Wendy Sath.avi torrent

Ifeelmyself - Wendy Sath.avi100.84 Mb torrent search

Sample info:
Duration: 00:14:15.20, start: 0.000000, bitrate: 989 kb/s
Stream #0.0: Video: mpeg4, yuv420p, 640x480 [PAR 1:1 DAR 4:3], 25 fps, 25 tbr, 25 tbn, 30k tbc
Stream #0.1: Audio: mp3, 48000 Hz, stereo, s16, 192 kb/s
screenshots
Ifeelmyself Wendy Sath torrent screenshot 094B2B4A11D1CD260C2918BB2FECEFE9EA356D5D Ifeelmyself Wendy Sath torrent screenshot 094b2b4a11d1cd260c2918bb2fecefe9ea356d5d torrent Ifeelmyself Wendy Sath
Ifeelmyself - Wendy Sath.avi images are auto generated please report any inapropriate images
 

related search cloud

 sath  wendy  ifeelmyself