Torrent Search | Torrent Meta Search | Widgets

GFRevenge My Girls Girl Daisy Summers Shae Summers flv

       
407.8 Mb
found 3 years ago
▲ seeders: 9 ▼ leechers:1
your vote:
real:
fake:
download torrent

GFRevenge My Girls Girl Daisy Summers Shae Summers flv torrent

Information about the torrent GFRevenge My Girls Girl Daisy Summers Shae Summers flv. Seeders, leechers and torrent status is updated several times per day.

If you want to download the video torrent GFRevenge My Girls Girl Daisy Summers Shae Summers flv you will need a torrent client.

Torrent Metasearch.

.

tracker
seeders
leechers
↓ torrent client compatible list

↑ hide torrent client compatible list

comments/reviews
140
torrent contents

GFRevenge - My Girls Girl - Daisy Summers, Shae Summers.flv torrent

GFRevenge - My Girls Girl - Daisy Summers, Shae Summers.flv407.8 Mb torrent search

Sample info:
Duration: 00:36:54.16, start: 0.000000, bitrate: 1544 kb/s
Stream #0:0: Video: h264 (Main), yuv420p, 768x432 [SAR 1:1 DAR 16:9], 30 tbr, 1k tbn, 60 tbc
Stream #0:1: Audio: aac, 32000 Hz, mono, s16
screenshots
Images are auto generated please report any inapropriate images
 

related search cloud

 summers  shae  daisy  girl  girls  gfrevenge