Torrent Search | Torrent Meta Search | Widgets

TokyoFaceFuck SITERIP 2011 12 30 XXX 1080p x264 AMiGOS

19.6 Gb
found 2 years ago
▲ seeders: 2 ▼ leechers:2
your vote:
real:
fake:
THANK YOU
download torrent
  Direct Downloadsponsored

TokyoFaceFuck SITERIP 2011 12 30 XXX 1080p x264 AMiGOS torrent

Information about the torrent TokyoFaceFuck SITERIP 2011 12 30 XXX 1080p x264 AMiGOS. Seeders, leechers and torrent status is updated several times per day.

If you want to download the adult torrent TokyoFaceFuck SITERIP 2011 12 30 XXX 1080p x264 AMiGOS you will need a torrent client.

Torrent Metasearch.

tracker
seeders
leechers
↓ torrent client compatible list

↑ hide torrent client compatible list

reviews
140
torrent contents

TokyoFaceFuck.SITERIP.2011-12-30.XXX.1080p.x264-AMiGOS torrent

TokyoFaceFuck.SITERIP.2011-12-30.XXX.1080p.x264-AMiGOS
TokyoFaceFuck.E23.Yuu.Tsuruno.XXX.1080p.WEBRip.x264-AMiGOS.mkv1.13 Gb torrent search
TokyoFaceFuck.E18.Cocoa.Saotomi.XXX.1080p.WEBRip.x264-AMiGOS.mkv999.1 Mb torrent search
TokyoFaceFuck.E06.Hikari.Sakamoto.XXX.1080p.WEBRip.x264-AMiGOS.mkv992.46 Mb torrent search
TokyoFaceFuck.E13.Ruru.Sonoda.XXX.1080p.WEBRip.x264-AMiGOS.mkv950.72 Mb torrent search
TokyoFaceFuck.E10.Yuuka.Konomi.XXX.1080p.WEBRip.x264-AMiGOS.mkv941.08 Mb torrent search
TokyoFaceFuck.E05.Miku.Oguri.XXX.1080p.WEBRip.x264-AMiGOS.mkv936.51 Mb torrent search
TokyoFaceFuck.E02.Nonoka.Kaede.XXX.1080p.WEBRip.x264-AMiGOS.mkv924.92 Mb torrent search
TokyoFaceFuck.E08.Riko.Kashii.XXX.1080p.WEBRip.x264-AMiGOS.mkv922.13 Mb torrent search
TokyoFaceFuck.E14.Anri.Kawai.XXX.1080p.WEBRip.x264-AMiGOS.mkv870 Mb torrent search
TokyoFaceFuck.E12.Sakura.Kiryu.XXX.1080p.WEBRip.x264-AMiGOS.mkv853.51 Mb torrent search
TokyoFaceFuck.E01.Eri.Makino.XXX.1080p.WEBRip.x264-AMiGOS.mkv844.48 Mb torrent search
TokyoFaceFuck.E21.Miku.Himeno.XXX.1080p.WEBRip.x264-AMiGOS.mkv831.09 Mb torrent search
TokyoFaceFuck.E19.Sara.Asakawa.XXX.1080p.WEBRip.x264-AMiGOS.mkv826.67 Mb torrent search
TokyoFaceFuck.E09.Mana.Aoki.XXX.1080p.WEBRip.x264-AMiGOS.mkv817.99 Mb torrent search
TokyoFaceFuck.E20.Rumi.Aoki.XXX.1080p.WEBRip.x264-AMiGOS.mkv814.97 Mb torrent search
TokyoFaceFuck.E04.Sora.Kanzaki.XXX.1080p.WEBRip.x264-AMiGOS.mkv803.69 Mb torrent search
TokyoFaceFuck.E15.Nana.Kimiki.XXX.1080p.WEBRip.x264-AMiGOS.mkv795.58 Mb torrent search
TokyoFaceFuck.E17.Nao.Yuzumiai.XXX.1080p.WEBRip.x264-AMiGOS.mkv794.72 Mb torrent search

Sample info:
Duration: 00:38:37.78, start: 0.000000, bitrate: N/A
Stream #0.0(eng): Video: h264, yuv420p, 1920x1080 [PAR 1:1 DAR 16:9], 29.97 fps, 29.92 tbr, 1k tbn, 59.94 tbc
Stream #0.1(eng): Audio: aac, 48000 Hz, stereo, s16
screenshots
TokyoFaceFuck SITERIP 2011 12 torrent screenshot 0A8F84EE53E121543ACA6C5DD9CE3CBECE29A6AF TokyoFaceFuck SITERIP 2011 12  torrent screenshot 0a8f84ee53e121543aca6c5dd9ce3cbece29a6af torrent TokyoFaceFuck SITERIP 2011 12
TokyoFaceFuck.SITERIP.2011-12-30.XXX.1080p.x264-AMiGOS images are auto generated please report any inapropriate images
you may be interested in these torrents seeders leechers size found
TokyoFaceFuck E13 Ruru Sonoda XXX mkv 1 3 950.72 Mb 6 months ago

TokyoFaceFuck.E13.Ruru.Sonoda.XXX.mkv


 

related search cloud

 amigos  tokyofacefuck  webrip  miku  aoki  sara  himeno  makino  kiryu  asakawa