Torrent Search | Torrent Meta Search | Widgets

BeanSub&FZSD Re CREATORS 11 BIG5 720P x264 AAC

171 Mb
found 9 days ago
▲ seeders: 242 ▼ leechers:14
your vote:
real:
fake:
download torrent

BeanSub&FZSD Re CREATORS 11 BIG5 720P x264 AAC torrent

Information about the torrent BeanSub&FZSD Re CREATORS 11 BIG5 720P x264 AAC. Seeders, leechers and torrent status is updated several times per day.

If you want to download the hdrip torrent BeanSub&FZSD Re CREATORS 11 BIG5 720P x264 AAC you will need a torrent client.

Torrent Metasearch.

tracker
seeders
leechers
↓ torrent client compatible list

↑ hide torrent client compatible list

torrent contents

[BeanSub&FZSD][Re-CREATORS][11][BIG5][720P][x264_AAC].mp4 torrent

[BeanSub&FZSD][Re-CREATORS][11][BIG5][720P][x264_AAC].mp4171 Mb torrent search

Sample info:
Duration: 00:23:40.01, start: 0.000000, bitrate: 1010 kb/s
Stream #0:0	: Video: h264 (High) (avc1 / 0x31637661), yuv420p, 1280x720 [SAR 1:1 DAR 16:9], 880 kb/s, 23.98 fps, 23.98 tbr, 24k tbn, 47.95 tbc (default)
creation_time	: 2017-06-18 05:29:49
Stream #0:1	: Audio: aac (LC) (mp4a / 0x6134706D), 48000 Hz, stereo, fltp, 125 kb/s (default)
creation_time	: 2017-06-18 05:29:51
screenshots
Images are auto generated please report any inapropriate images
 

related search cloud

 creators  fzsd  beansub