Torrent Search | Torrent Meta Search | Widgets

IPZ 366

1.23 Gb
found 2 years ago
▲ seeders: 0 ▼ leechers:1
your vote:
real:
fake:
download torrent

IPZ 366 torrent

Information about the torrent IPZ 366. Seeders, leechers and torrent status is updated everyday.

If you want to download the video torrent IPZ 366 you will need a torrent client.

Torrent Metasearch.

No trackers with seeders or leechers have been found, this doesn't mean that the torrent IPZ 366 is dead
comments/reviews
140
torrent contents

IPZ-366 torrent

IPZ-366
IPZ-366.wmv1.23 Gb torrent search
[email protected]17 bytes torrent search

Sample info:
Duration: 01:59:58.03, start: 0.000000, bitrate: 1462 kb/s
Stream #0:0(eng): Audio: wmapro (b[1][0][0] / 0x0162), 44100 Hz, stereo, flt, 128 kb/s
Stream #0:1(eng): Video: wmv1 (WMV1 / 0x31564D57), yuv420p, 720x404, 1500 kb/s, 29.97 tbr, 1k tbn, 1k tbc
screenshots
Images are auto generated please report any inapropriate images