Torrent Search | Torrent Meta Search | Widgets

Kirari DV Vol 05 JAV Uncensored DVDRip x264 APX rarbg

825.01 Mb
found 10 months ago
▲ seeders: 1 ▼ leechers:2
your vote:
real:
fake:
Direct Download
THANK YOU
download torrent
  Direct Downloadsponsored

Kirari DV Vol 05 JAV Uncensored DVDRip x264 APX rarbg torrent

Information about the torrent Kirari DV Vol 05 JAV Uncensored DVDRip x264 APX rarbg. Seeders, leechers and torrent status is updated several times per day.

If you want to download the dvdrip torrent Kirari DV Vol 05 JAV Uncensored DVDRip x264 APX rarbg you will need a torrent client.

Torrent Metasearch.

tracker
seeders
leechers
↓ torrent client compatible list

↑ hide torrent client compatible list

Help torrentproject.se to stay alive .
Add links of torrentproject.se in your favorite forum, blog, youtube, facebook, twitter etc.
reviews
140
torrent contents

Kirari.DV.Vol.05.JAV.Uncensored.DVDRip.x264-APX[rarbg] torrent

Kirari.DV.Vol.05.JAV.Uncensored.DVDRip.x264-APX[rarbg]
RARBG.com.txt34 bytes torrent search
apx-mkdv05.mp4825.01 Mb torrent search
apx-mkdv05.nfo5.34 Kb torrent search

Sample info:
Duration: 01:30:56.45, start: 0.000000, bitrate: 1268 kb/s
Stream #0:0	: Video: h264 (High) (avc1 / 0x31637661), yuv420p, 704x396 [SAR 1:1 DAR 16:9], 1072 kb/s, 23.98 fps, 23.98 tbr, 24k tbn, 47.95 tbc
creation_time	: 2013-11-25 16:49:38
Stream #0:1	: Audio: aac (mp4a / 0x6134706D), 48000 Hz, stereo, s16, 191 kb/s
creation_time	: 2013-11-25 14:56:41
screenshots
Kirari DV Vol 05 torrent screenshot 0ED6F854E7D9A373306BE70231981DD96990AF31 Kirari DV Vol 05  torrent screenshot 0ed6f854e7d9a373306be70231981dd96990af31 torrent Kirari DV Vol 05
Kirari.DV.Vol.05.JAV.Uncensored.DVDRip.x264-APX[rarbg] images are auto generated please report any inapropriate images
you may be interested in these torrents seeders leechers size found
Kirari DV Vol 05 JAV Uncensored DVDRip x264 APX 2 2 825.32 Mb 8 months ago

1.jpg apx-mkdv05.mp4 apx-mkdv05.nfo front.jpg


Kirari DV Vol 05 JAV Uncensored DVDRip x264 2 1 825.32 Mb 10 months ago

RARBG.com.txt Kirari DV Vol 05 JAV-Uncensored DVDRip x264  Kirari.DV.Vol.05.JAV.Uncensored


 

related search cloud

 mkdv  rarbg  dvdrip  uncensored  kirari