Torrent Search | Torrent Meta Search | Widgets

La era del hielo 4

1.39 Gb
found 4 years ago
▲ seeders: 11 ▼ leechers:1
your vote:
real:
fake:
download torrent

La era del hielo 4 torrent

Information about the torrent La era del hielo 4. Seeders, leechers and torrent status is updated everyday.

If you want to download the video torrent La era del hielo 4 you will need a torrent client.

Torrent Metasearch.

tracker
seeders
leechers
↓ torrent client compatible list

↑ hide torrent client compatible list

comments/reviews
140
torrent contents

La era del hielo 4 torrent

La era del hielo 4
La era hielo 4.avi1.39 Gb torrent search
Torrent downloaded from Demonoid.me.txt46 bytes torrent search

Sample info:
Duration: 01:18:46.97, start: 0.000000, bitrate: 2530 kb/s
Stream #0.0: Video: mpeg4, yuv420p, 720x320 [PAR 1:1 DAR 9:4], 23.98 tbr, 23.98 tbn, 23.98 tbc
Stream #0.1: Audio: mp3, 48000 Hz, 2 channels, s16, 192 kb/s
screenshots
Images are auto generated please report any inapropriate images
 

related search cloud

 hielo  demonoid  torrent  downloaded