Torrent Search | Torrent Meta Search | Widgets

Classic xxx

20.91 Gb
found 2 years ago
▲ seeders: 7 ▼ leechers:9
your vote:
real:
fake:
Direct Download
THANK YOU
download torrent
  Direct Downloadsponsored

Classic xxx torrent

Information about the torrent Classic xxx. Seeders, leechers and torrent status is updated several times per day.

If you want to download the european torrent Classic xxx you will need a torrent client.

Torrent Metasearch.

tracker
seeders
leechers
↓ torrent client compatible list

↑ hide torrent client compatible list

Help torrentproject.se to stay alive .
Add links of torrentproject.se in your favorite forum, blog, youtube, facebook, twitter etc.
reviews
140
torrent contents

Classic xxx torrent

Classic xxx
 alpha france
1 Classic XXX - 1977 - Brigitte Lahaie - La Perversion d'une Jeune Mariee Divx.AVI497.13 Mb torrent search
[Classic XXX Brigitte Lahaie - Les petites ecolieres.avi535.07 Mb torrent search
Aaa French Classic Xxx Alpha France Chaudes Adolescentes.avi716.7 Mb torrent search
BL 1979 - Les Enfiles.avi777.75 Mb torrent search
Classic XXX - 1977 - Parties Fines (Brigitte Lahaie).avi625.11 Mb torrent search
Classic XXX - Brigitte Lahaie - Fievres nocturnes.avi548.21 Mb torrent search
Classic XXX - Brigitte Lahaie - La Rabatteuse.avi686.69 Mb torrent search
Classic XXX - La femme objet - (Marylin Jess French 1980 divx5).avi699.82 Mb torrent search
Classic.XXX.1979.Les_Vices_Caches_D'Eva_Blue[torrents.ru].avi851.03 Mb torrent search
Je Suis A Pret BL.avi698.48 Mb torrent search
xxx - classic - les plaisirs fous (brigitte lahaie).avi433.85 Mb torrent search
Xxx.(Classic).La.Pension.Des.Fesses.Nues(French).avi690.55 Mb torrent search
XXX.Classic.-.Emmanuelle.Parčze.avi718.21 Mb torrent search

Classic xxx
 Classic XXX - #068 - The Grafenberg Spot
Classic XXX - The Grafenberg Spot.avi706.74 Mb torrent search
Classic XXX - The Grafenberg Spot.jpg374.88 Kb torrent search

Classic xxx
 mutzenbacher
[Classic Porn] Josefine Mutzenbacher rider igen.avi673.04 Mb torrent search
Best of Mutzenbacher.RSVCD.by.ewu64.mpg635.5 Mb torrent search
Josefine Mutzenbacher.avi275.28 Mb torrent search

Classic xxx
 worth_to_see
Classic - 1979 - Le Retour des Veuves - Brigitte Lahaie.avi760.04 Mb torrent search
Classic XXX - Brigitte Lahaie - Julchen und Jettchen.avi707.25 Mb torrent search

Sample info:
Duration: 01:14:04.23, start: 0.000000, bitrate: 2202 kb/s
Stream #0.0: Video: mpeg4, yuv420p, 640x496 [PAR 1:1 DAR 40:31], 23.98 tbr, 23.98 tbn, 23.98 tbc
Stream #0.1: Audio: mp3, 48000 Hz, 2 channels, s16, 96 kb/s
screenshots
Classic xxx torrent screenshot 0FD63579908CD0BD5E0E16C82EFB043DEB52D3E4 Classic xxx torrent screenshot 0fd63579908cd0bd5e0e16c82efb043deb52d3e4 torrent Classic xxx
Classic xxx images are auto generated please report any inapropriate images
 

related search cloud

 claic  lahaie  brigitte  mutzenbacher  french  grafenberg  spot  josefine  divx  france