Torrent Search | Torrent Meta Search | Widgets

Manila Exposed VOL 7 DVDRip

       
1.28 Gb
found 3 years ago
▲ seeders: 2 ▼ leechers:2
your vote:
real:
fake:
Direct Download
THANK YOU
download torrent
  Direct Downloadsponsored

Manila Exposed VOL 7 DVDRip torrent

Information about the torrent Manila Exposed VOL 7 DVDRip. Seeders, leechers and torrent status is updated everyday.

If you want to download the dvdrip torrent Manila Exposed VOL 7 DVDRip you will need a torrent client.

Torrent Metasearch.

Torrent verified by kat.ph.

tracker
seeders
leechers
↓ torrent client compatible list

↑ hide torrent client compatible list

Help torrentproject.se to stay alive .
Add links of torrentproject.se in your favorite forum, blog, youtube, facebook, twitter etc.
reviews
140
torrent contents

Manila Exposed VOL 7 DVDRip torrent

Manila Exposed VOL 7 DVDRip
Manila Exposed VOL 7 DVDRip scn5.avi284.71 Mb torrent search
Manila Exposed VOL 7 DVDRip scn4.avi174.99 Mb torrent search
Manila Exposed VOL 7 DVDRip scn3.avi285.76 Mb torrent search
Manila Exposed VOL 7 DVDRip scn2.avi271.79 Mb torrent search
Manila Exposed VOL 7 DVDRip scn1.avi298.26 Mb torrent search

Sample info:
Duration: 00:18:07.18, start: 0.000000, bitrate: 2301 kb/s
Stream #0.0: Video: mpeg4, yuv420p, 640x480 [PAR 1:1 DAR 4:3], 29.97 tbr, 29.97 tbn, 29.97 tbc
Stream #0.1: Audio: ac3, 48000 Hz, stereo, s16, 448 kb/s
screenshots
Manila Exposed VOL 7 torrent screenshot 1047DDDC81ECE6B692E7FBDC771FECED71A970B1 Manila Exposed VOL 7  torrent screenshot 1047dddc81ece6b692e7fbdc771feced71a970b1 torrent Manila Exposed VOL 7
Manila Exposed VOL 7 DVDRip images are auto generated please report any inapropriate images
you may be interested in these torrents seeders leechers size found
Wildlife Productions Manila Exposed vol 4 2 1 1.28 Gb 3 years ago

MANILA4.chapter01.avi MANILA4.chapter02.avi MANILA4.chapter03.a


冷月无声@草榴社区@Manila Exposed Vol 7 操爆馬尼拉 7 0 1 698.29 Mb 3 years ago

1.jpg 2.jpg 3.jpg fle-me7.avi


 

related search cloud

 dvdrip  exposed  manila