Torrent Search | Torrent Meta Search | Widgets

Fkk Nudist Naturist Czech Nudist Camp VCD1

503.97 Mb
found 4 years ago
▲ seeders: 8 ▼ leechers:2
your vote:
real:
fake:
Direct Download
THANK YOU
download torrent
  Direct Downloadsponsored

Fkk Nudist Naturist Czech Nudist Camp VCD1 torrent

Information about the torrent Fkk Nudist Naturist Czech Nudist Camp VCD1. Seeders, leechers and torrent status is updated several times per day.

If you want to download the video torrent Fkk Nudist Naturist Czech Nudist Camp VCD1 you will need a torrent client.

Torrent Metasearch.

tracker
seeders
leechers
↓ torrent client compatible list

↑ hide torrent client compatible list

Help torrentproject.se to stay alive .
Add links of torrentproject.se in your favorite forum, blog, youtube, facebook, twitter etc.
reviews
140
torrent contents

Fkk-Nudist-Naturist-Czech Nudist Camp-VCD1.mpg torrent

Fkk-Nudist-Naturist-Czech Nudist Camp-VCD1.mpg503.97 Mb torrent search

Sample info:
Duration: 00:50:31.60, start: 0.346711, bitrate: 1394 kb/s
Stream #0.0[0x1e0]: Video: mpeg1video, yuv420p, 352x288 [PAR 178:163 DAR 1958:1467], 1150 kb/s, 25 fps, 25 tbr, 90k tbn, 25 tbc
Stream #0.1[0x1c0]: Audio: mp2, 44100 Hz, 2 channels, s16, 224 kb/s
screenshots
Fkk Nudist Naturist Czech torrent screenshot 10D73BB4F5993D0EF184AA9AC6D55F5339933F4C Fkk Nudist Naturist Czech  torrent screenshot 10d73bb4f5993d0ef184aa9ac6d55f5339933f4c torrent Fkk Nudist Naturist Czech
Fkk-Nudist-Naturist-Czech Nudist Camp-VCD1.mpg images are auto generated please report any inapropriate images
 

related search cloud

 nudist  camp  naturist  czech