Torrent Search | Torrent Meta Search | Widgets

Dark Matter S03E07 HDTV x264 BATSHIT ettv

       
264.9 Mb
found 13 days ago
▲ seeders: 892 ▼ leechers:45
your vote:
real:
fake:
download torrent

Dark Matter S03E07 HDTV x264 BATSHIT ettv torrent

Information about the torrent Dark Matter S03E07 HDTV x264 BATSHIT ettv. Seeders, leechers and torrent status is updated everyday.

If you want to download the tv torrent Dark Matter S03E07 HDTV x264 BATSHIT ettv you will need a torrent client.

Torrent Metasearch.

Torrent verified by thepiratebay.se.

tracker
seeders
leechers
↓ torrent client compatible list

↑ hide torrent client compatible list

torrent contents

Dark.Matter.S03E07.HDTV.x264-BATSHIT[ettv] torrent

Dark.Matter.S03E07.HDTV.x264-BATSHIT[ettv]
Dark.Matter.S03E07.HDTV.x264-BATSHIT[ettv].mkv264.9 Mb torrent search
To keep us going please read.txt161 bytes torrent search

Sample info:
Duration: 00:42:36.47, start: 0.000000, bitrate: 869 kb/s
Stream #0:0: Video: h264 (High), yuv420p(tv, bt709/unknown/unknown), 960x540 [SAR 1:1 DAR 16:9], 23.98 fps, 23.98 tbr, 1k tbn, 47.95 tbc (default)
BPS	: 738984
BPS-eng	: 738984
DURATION	: 00:42:36.471000000
DURATION-eng	: 00:42:36.471000000
NUMBER_OF_FRAMES: 61294
NUMBER_OF_FRAMES-eng: 61294
NUMBER_OF_BYTES : 236149079
NUMBER_OF_BYTES-eng: 236149079
_STATISTICS_WRITING_APP: mkvmerge v13.0.0 ('The Juggler') 64bit
_STATISTICS_WRITING_APP-eng: mkvmerge v13.0.0 ('The Juggler') 64bit
_STATISTICS_WRITING_DATE_UTC: 2017-07-15 02:48:44
_STATISTICS_WRITING_DATE_UTC-eng: 2017-07-15 02:48:44
_STATISTICS_TAGS: BPS DURATION NUMBER_OF_FRAMES NUMBER_OF_BYTES
_STATISTICS_TAGS-eng: BPS DURATION NUMBER_OF_FRAMES NUMBER_OF_BYTES
Stream #0:1: Audio: aac (LC), 48000 Hz, stereo, fltp (default)
BPS	: 127999
BPS-eng	: 127999
DURATION	: 00:42:36.459000000
DURATION-eng	: 00:42:36.459000000
NUMBER_OF_FRAMES: 119834
NUMBER_OF_FRAMES-eng: 119834
NUMBER_OF_BYTES : 40903135
NUMBER_OF_BYTES-eng: 40903135
_STATISTICS_WRITING_APP: mkvmerge v13.0.0 ('The Juggler') 64bit
_STATISTICS_WRITING_APP-eng: mkvmerge v13.0.0 ('The Juggler') 64bit
_STATISTICS_WRITING_DATE_UTC: 2017-07-15 02:48:44
_STATISTICS_WRITING_DATE_UTC-eng: 2017-07-15 02:48:44
_STATISTICS_TAGS: BPS DURATION NUMBER_OF_FRAMES NUMBER_OF_BYTES
_STATISTICS_TAGS-eng: BPS DURATION NUMBER_OF_FRAMES NUMBER_OF_BYTES
screenshots
Images are auto generated please report any inapropriate images
 

related search cloud

 dark  batshit  ettv  hdtv  matter  read  please  keep  going