Torrent Search | Torrent Meta Search | Widgets

Borgen S03E09

473.97 Mb
found 2 years ago
▲ seeders: 7 ▼ leechers:1
your vote:
real:
fake:
Direct Download
THANK YOU
download torrent
  Direct Downloadsponsored

Borgen S03E09 torrent

Information about the torrent Borgen S03E09. A torrent file stores metadata that can be used from a BitTorrent client.

If you want to download the tv torrent Borgen S03E09 you will need a torrent client.

Torrent Metasearch.

tracker
seeders
leechers
↓ torrent client compatible list

↑ hide torrent client compatible list

Help torrentproject.se to stay alive .
Add links of torrentproject.se in your favorite forum, blog, youtube, facebook, twitter etc.
reviews
140
torrent contents

Borgen S03E09.mp4 torrent

Borgen S03E09.mp4473.97 Mb torrent search

Sample info:
Duration: 00:58:22.84, start: 0.000000, bitrate: N/A
Stream #0.0: Video: h264 (High), yuv420p, 854x480 [PAR 1:1 DAR 427:240], 25 tbr, 1k tbn, 50 tbc
Stream #0.1: Audio: aac, 44100 Hz, stereo, s16
screenshots
Borgen S03E09 torrent screenshot 1105CEC8BC516F184C80B9B6B943A3A444D14AC6 Borgen S03E09 torrent screenshot 1105cec8bc516f184c80b9b6b943a3a444d14ac6 torrent Borgen S03E09
Borgen S03E09.mp4 images are auto generated please report any inapropriate images
 

related search cloud

 borgen