Torrent Search | Torrent Meta Search | Widgets

Here Comes the Waves

642.47 Mb
found 4 years ago
▲ seeders: 2 ▼ leechers:1
your vote:
real:
fake:
Direct Download
THANK YOU
download torrent
  Direct Downloadsponsored

Here Comes the Waves torrent

Information about the torrent Here Comes the Waves. Seeders, leechers and torrent status is updated several times per day.

If you want to download the video torrent Here Comes the Waves you will need a torrent client.

Torrent Metasearch.

tracker
seeders
leechers
↓ torrent client compatible list

↑ hide torrent client compatible list

Help torrentproject.se to stay alive .
Add links of torrentproject.se in your favorite forum, blog, youtube, facebook, twitter etc.
reviews
140
torrent contents

Here Comes the Waves torrent

Here Comes the Waves
The Decemberists_ Here Come the Waves.mp4642.47 Mb torrent search
Torrent downloaded from Demonoid.com.txt47 bytes torrent search

Sample info:
Duration: 01:00:03.75, start: 0.000000, bitrate: 1495 kb/s
Stream #0.0	: Video: mpeg4, yuv420p, 852x480 [PAR 1:1 DAR 71:40], 11.99 tb(r)
Stream #0.1	: Audio: libfaad, 48000 Hz, stereo
screenshots
Here Comes the Waves torrent screenshot 118117CB78C54E9EF3ED33E366CFB1583F02A576 Here Comes the Waves torrent screenshot 118117cb78c54e9ef3ed33e366cfb1583f02a576 torrent Here Comes the Waves
Here Comes the Waves images are auto generated please report any inapropriate images
 

related search cloud

 here  waves  downloaded  demonoid  torrent  decemberists  comes  come