Torrent Search | Torrent Meta Search | Widgets

Betrayed (1988) DVDRip VG

       
700.77 Mb
found 4 years ago
▲ seeders: 5 ▼ leechers:1
your vote:
real:
fake:
Direct Download
THANK YOU
download torrent
  Direct Downloadsponsored

Betrayed (1988) DVDRip VG torrent

Information about the torrent Betrayed (1988) DVDRip VG. Seeders, leechers and torrent status is updated several times per day.

If you want to download the dvdrip torrent Betrayed (1988) DVDRip VG you will need a torrent client.

Torrent Metasearch.

.

tracker
seeders
leechers
↓ torrent client compatible list

↑ hide torrent client compatible list

Help torrentproject.se to stay alive .
Add links of torrentproject.se in your favorite forum, blog, youtube, facebook, twitter etc.
reviews
140
torrent contents

Betrayed[1988]DVDrip-VG.avi torrent

Betrayed[1988]DVDrip-VG.avi700.77 Mb torrent search

Sample info:
Duration: 02:01:37.84, start: 0.000000, bitrate: 805 kb/s
Stream #0.0: Video: mpeg4 (Advanced Simple Profile), yuv420p, 576x320 [PAR 1:1 DAR 9:5], 25 tbr, 25 tbn, 25 tbc
Stream #0.1: Audio: mp3, 48000 Hz, stereo, s16, 114 kb/s
screenshots
Betrayed 1988 DVDRip VG torrent screenshot 1252D6A0783C781E7CA5927D4732B3F534F2386B Betrayed 1988 DVDRip VG torrent screenshot 1252d6a0783c781e7ca5927d4732b3f534f2386b torrent Betrayed 1988 DVDRip VG
Betrayed[1988]DVDrip-VG.avi images are auto generated please report any inapropriate images
you may be interested in these torrents seeders leechers size found
ALETORRENTY PL Betrayed (1988) alE13 4 0 3.61 Gb 11 months ago

Betrayed (1988)-alE13.mkv Nostalgie11.jpg txt.jpg 1.jpg


 

related search cloud

 dvdrip  betrayed