Torrent Search | Torrent Meta Search | Widgets

Oxi Anya

306.48 Mb
found 4 years ago
▲ seeders: 1 ▼ leechers:1
your vote:
real:
fake:
Direct Download
THANK YOU
download torrent
  Direct Downloadsponsored

Oxi Anya torrent

Information about the torrent Oxi Anya. Seeders, leechers and torrent status is updated several times per day.

If you want to download the video torrent Oxi Anya you will need a torrent client.

Torrent Metasearch.

tracker
seeders
leechers
↓ torrent client compatible list

↑ hide torrent client compatible list

Help torrentproject.se to stay alive .
Add links of torrentproject.se in your favorite forum, blog, youtube, facebook, twitter etc.
reviews
anonymous 24 Aug 2014, 09:08:21
vbnv htr
140
torrent contents

Oxi(Anya) torrent

Oxi(Anya)
Oxi.1.avi149.78 Mb torrent search
Oxi.2.avi156.7 Mb torrent search

Sample info:
Duration: 00:14:44.32, start: 0.000000, bitrate: 1486 kb/s
Stream #0.0: Video: mpeg4, yuv420p, 720x576 [PAR 1:1 DAR 5:4], 25 fps, 25 tbr, 25 tbn, 30k tbc
Stream #0.1: Audio: mp3, 11025 Hz, 2 channels, s16, 32 kb/s
screenshots
Oxi Anya torrent screenshot 12B33B7416619904B34E2C4F45218F45524307AF Oxi Anya torrent screenshot 12b33b7416619904b34e2c4f45218f45524307af torrent Oxi Anya
Oxi(Anya) images are auto generated please report any inapropriate images
 

related search cloud

 anya