Torrent Search | Torrent Meta Search | Widgets

MDYD 753

1.61 Gb
found 2 years ago
▲ seeders: 3 ▼ leechers:4
your vote:
real:
fake:
Direct Download
THANK YOU
download torrent
  Direct Downloadsponsored

MDYD 753 torrent

Information about the torrent MDYD 753. A torrent file stores metadata that can be used from a BitTorrent client.

If you want to download the video torrent MDYD 753 you will need a torrent client.

Torrent Metasearch.

tracker
seeders
leechers
↓ torrent client compatible list

↑ hide torrent client compatible list

Help torrentproject.se to stay alive .
Add links of torrentproject.se in your favorite forum, blog, youtube, facebook, twitter etc.
reviews
140
torrent contents

MDYD-753 torrent

MDYD-753
JAV Torrent 掲示板.URL210 bytes torrent search
MDYD-753.jpg147.29 Kb torrent search
MDYD-753.mkv1.61 Gb torrent search
MDYD-753B.jpg305.91 Kb torrent search
bearbbs@18P2P.txt7 bytes torrent search
bearbbs@FastZone.ORG.txt7 bytes torrent search
bearbbs@www.mimip2p.net.txt7 bytes torrent search
bearbbs@公仔箱論壇.txt33 bytes torrent search
bearbbs@公仔箱論壇.url113 bytes torrent search
bearbbs@無限討論區.url245 bytes torrent search

Sample info:
Duration: 02:27:22.04, start: 0.000000, bitrate: N/A
Stream #0.0: Audio: aac, 44100 Hz, stereo, s16 (default)
Stream #0.1: Video: h264 (High), yuv420p, 800x452 [PAR 1:1 DAR 200:113], 30 fps, 30 tbr, 1k tbn, 60 tbc (default)
screenshots
MDYD 753 torrent screenshot 130C0FF2675713F4A2C5E03F6001F4CDE9B56B17 MDYD 753 torrent screenshot 130c0ff2675713f4a2c5e03f6001f4cde9b56b17 torrent MDYD 753
MDYD-753 images are auto generated please report any inapropriate images
you may be interested in these torrents seeders leechers size found
第一會所新片@SIS001@ 溜池ゴロー MDYD 753 義母奴隷 西條るり 1 2 2.62 Gb 2 years ago

(溜池ゴロー)(MDYD-753)義母奴隷 西條るり.jpg


im520@SIS001@MDYD 753 0 1 520.25 Mb 2 years ago

MDYD-753.rmvb MDYD-753q.jpg SIS001影视联盟.gif im520@www.sis001.com.url


 

related search cloud

 bearbbs  mdyd  mimip  fastzone  torrent