Torrent Search | Torrent Meta Search | Widgets

Explicite Art Sharon Lee Erotic Wakening

       
408.74 Mb
found 3 years ago
▲ seeders: 2 ▼ leechers:1
your vote:
real:
fake:
Direct Download
THANK YOU
download torrent
  Direct Downloadsponsored

Explicite Art Sharon Lee Erotic Wakening torrent

Information about the torrent Explicite Art Sharon Lee Erotic Wakening. Seeders, leechers and torrent status is updated everyday.

If you want to download the video torrent Explicite Art Sharon Lee Erotic Wakening you will need a torrent client.

Torrent Metasearch.

.

tracker
seeders
leechers
↓ torrent client compatible list

↑ hide torrent client compatible list

Help torrentproject.se to stay alive .
Add links of torrentproject.se in your favorite forum, blog, youtube, facebook, twitter etc.
reviews
140
torrent contents

Explicite-Art - Sharon Lee - Erotic Wakening torrent

Explicite-Art - Sharon Lee - Erotic Wakening
ktr.eart.10.11.11.sharon.lee.erotic.wakening.mov408.74 Mb torrent search

Sample info:
Duration: 00:10:51.38, start: 0.000000, bitrate: 5263 kb/s
Stream #0.0(eng): Audio: aac, 0 channels, s16, 104 kb/s
creation_time	: 2010-11-03 02:41:27
Stream #0.1(eng): Video: h264, yuv420p, 1280x720, 5154 kb/s, PAR 1:1 DAR 16:9, 25 fps, 25 tbr, 25 tbn, 50 tbc
creation_time	: 2010-11-03 02:41:27
screenshots
Explicite Art Sharon Lee torrent screenshot 136D7AA53B526264EC7C4BDB360A5713AE1F1DF4 Explicite Art Sharon Lee  torrent screenshot 136d7aa53b526264ec7c4bdb360a5713ae1f1df4 torrent Explicite Art Sharon Lee
Explicite-Art - Sharon Lee - Erotic Wakening images are auto generated please report any inapropriate images
 

related search cloud

 wakening  erotic  sharon  eart  explicite