Torrent Search | Torrent Meta Search | Widgets

Cpasbien me Oblivion (2013) FRENCH BDRip XviD RELIC

1.37 Gb
found 1 year ago
▲ seeders: 151 ▼ leechers:10
your vote:
real:
fake:
Direct Download
THANK YOU
download torrent
  Direct Downloadsponsored

Cpasbien me Oblivion (2013) FRENCH BDRip XviD RELIC torrent

Information about the torrent Cpasbien me Oblivion (2013) FRENCH BDRip XviD RELIC. A torrent file stores metadata that can be used from a BitTorrent client.

If you want to download the dvdrip torrent Cpasbien me Oblivion (2013) FRENCH BDRip XviD RELIC you will need a torrent client.

Torrent Metasearch.

tracker
seeders
leechers
↓ torrent client compatible list

↑ hide torrent client compatible list

Help torrentproject.se to stay alive .
Add links of torrentproject.se in your favorite forum, blog, youtube, facebook, twitter etc.
reviews
140
torrent contents

[www.Cpasbien.me] Oblivion.2013.FRENCH.BDRip.XviD-RELIC torrent

[www.Cpasbien.me] Oblivion.2013.FRENCH.BDRip.XviD-RELIC
Films DVDRIP sur www.Cpasbien.me.html462 bytes torrent search
Films et series sur www.CPASBIEN.me.txt57 bytes torrent search
Les derniers Film et serie sur Cpasbien.me - cliquez ici !.html462 bytes torrent search
[www.Cpasbien.me] Oblivion.2013.FRENCH.BDRip.XviD-RELIC.avi1.37 Gb torrent search

Sample info:
Duration: 02:04:42.46, start: 0.000000, bitrate: 1567 kb/s
Stream #0:0: Video: mpeg4 (Advanced Simple Profile) (XVID / 0x44495658), yuv420p, 720x302 [SAR 1:1 DAR 360:151], 23.98 tbr, 23.98 tbn, 23.98 tbc
Stream #0:1: Audio: mp3 (U[0][0][0] / 0x0055), 44100 Hz, stereo, s16, 128 kb/s
screenshots
Cpasbien me Oblivion 2013 torrent screenshot 1401611B961F32C658DD67CF2FC3A8A30C64BC71 Cpasbien me Oblivion 2013  torrent screenshot 1401611b961f32c658dd67cf2fc3a8a30c64bc71 torrent Cpasbien me Oblivion 2013
[www.Cpasbien.me] Oblivion.2013.FRENCH.BDRip.XviD-RELIC images are auto generated please report any inapropriate images
you may be interested in these torrents seeders leechers size found
Cpasbien me OBLiViON (2013) FRENCH TS HQ XviD KiNGOFBLURAY 67 3 697.17 Mb 2 years ago

Films DVDRIP sur www.Cpasbien.me.html Films et series sur www.CPASBIEN


Cpasbien me Oblivion (2013) VOSTFR BRRip AC3 XviD TT 11 3 2.05 Gb 1 year ago

Films DVDRIP sur www.Cpasbien.me.html Films et series sur www.CPASBIEN.me.tx


 

related search cloud

 cpasbien  relic  xvid  films  bdrip  oblivion  french  serie  cliquez  film