Torrent Search | Torrent Meta Search | Widgets

Kasey Chase Powerfuck Manuel Ferrara

       
261.9 Mb
found 3 years ago
▲ seeders: 25 ▼ leechers:6
your vote:
real:
fake:
THANK YOU
download torrent

Kasey Chase Powerfuck Manuel Ferrara torrent

Information about the torrent Kasey Chase Powerfuck Manuel Ferrara. Seeders, leechers and torrent status is updated several times per day.

If you want to download the video torrent Kasey Chase Powerfuck Manuel Ferrara you will need a torrent client.

Torrent Metasearch.

Torrent verified by kat.ph.

tracker
seeders
leechers
↓ torrent client compatible list

↑ hide torrent client compatible list

reviews
140
torrent contents

Kasey Chase - Powerfuck Manuel Ferrara.avi torrent

Kasey Chase - Powerfuck Manuel Ferrara.avi261.9 Mb torrent search

Sample info:
Duration: 00:26:14.74, start: 0.000000, bitrate: 1395 kb/s
Stream #0.0: Video: mpeg4, yuv420p, 576x320 [PAR 1:1 DAR 9:5], 23.98 tbr, 23.98 tbn, 23.98 tbc
Stream #0.1: Audio: mp3, 48000 Hz, 2 channels, s16, 121 kb/s
screenshots
Kasey Chase Powerfuck Manuel torrent screenshot 148310D896B7A67E83A460AC12561F11AF464ED8 Kasey Chase Powerfuck Manuel  torrent screenshot 148310d896b7a67e83a460ac12561f11af464ed8 torrent Kasey Chase Powerfuck Manuel
Images are auto generated please report any inapropriate images
you may be interested in these torrents seeders leechers size found
Disgraced 18 Kasey Chase 11 2 535.18 Mb 2 years ago

d18_kaseychase-mp4FullHigh-1.mp4


Next Door Amateur Kasey Chase 7 1 201.68 Mb 2 years ago

Next Door Amateur - Kasey Chase.wmv


Kasey Chase Sexy Nurse 6 2 479.93 Mb 5 months ago

Kasey Chase - Sexy Nurse.wmv



Pure 18 Kasey Or Kacey Chase 5 1 326.85 Mb 2 years ago

Kasey Chase.mp4


Kasey Chase and Jennifer White First Time BFF Threesome! 4 2 457.79 Mb 1 month ago

Kasey Chase and Jennifer White - Teen BFF.avi


NextDoorAmateur Kasey Chase     3 2 201.68 Mb 2 years ago

NextDoorAmateur - Kasey Chase.wmv


Classic Clips Kasey Chase A Definate Must Have     3 3 719.2 Mb 3 years ago

Classic Clips - Kasey Chase - A Definate Must Have.wmv


JAV Video Kasey Chase 3 3 275.16 Mb 4 years ago

JAV Video - Kasey Chase.avi


 

related search cloud

 ferrara  manuel  powerfuck  chase  kasey