Torrent Search | Torrent Meta Search | Widgets

Clips 4 Sale Klixen Kinky Sarah HD 1080p

450.44 Mb
found 2 years ago
▲ seeders: 5 ▼ leechers:3
your vote:
real:
fake:
Direct Download
THANK YOU
download torrent
  Direct Downloadsponsored

Clips 4 Sale Klixen Kinky Sarah HD 1080p torrent

Information about the torrent Clips 4 Sale Klixen Kinky Sarah HD 1080p. Seeders, leechers and torrent status is updated several times per day.

If you want to download the hdrip torrent Clips 4 Sale Klixen Kinky Sarah HD 1080p you will need a torrent client.

Torrent Metasearch.

tracker
seeders
leechers
↓ torrent client compatible list

↑ hide torrent client compatible list

Help torrentproject.se to stay alive .
Add links of torrentproject.se in your favorite forum, blog, youtube, facebook, twitter etc.
reviews
140
torrent contents

Clips 4 Sale, Klixen - Kinky Sarah HD 1080p torrent

Clips 4 Sale, Klixen - Kinky Sarah HD 1080p
Klixen - Kinky Sarah.mp4450.44 Mb torrent search

Sample info:
Duration: 00:10:39.04, start: 0.000000, bitrate: 5912 kb/s
Stream #0.0	: Video: h264 (Main), yuv420p, 1920x1080 [PAR 1:1 DAR 16:9], 5747 kb/s, 29.97 fps, 1k tbr, 90k tbn, 180k tbc
creation_time	: 2013-01-26 11:18:09
Stream #0.1(deu): Audio: aac, 48000 Hz, stereo, s16, 159 kb/s
creation_time	: 2013-01-26 11:18:09
screenshots
Clips 4 Sale Klixen torrent screenshot 14B15BF7246597FAC1DF7C0C8FC0E6636C175DD3 Clips 4 Sale Klixen  torrent screenshot 14b15bf7246597fac1df7c0c8fc0e6636c175dd3 torrent Clips 4 Sale Klixen
Clips 4 Sale, Klixen - Kinky Sarah HD 1080p images are auto generated please report any inapropriate images
 

related search cloud

 sarah  kinky  klixen  sale  clips