Torrent Search | Torrent Meta Search | Widgets

x art addison tarde espanola 720

449.09 Mb
found 2 years ago
▲ seeders: 2 ▼ leechers:1
your vote:
real:
fake:
Direct Download
THANK YOU
download torrent
  Direct Downloadsponsored

x art addison tarde espanola 720 torrent

Information about the torrent x art addison tarde espanola 720. Seeders, leechers and torrent status is updated everyday.

If you want to download the video torrent x art addison tarde espanola 720 you will need a torrent client.

Torrent Metasearch.

tracker
seeders
leechers
↓ torrent client compatible list

↑ hide torrent client compatible list

Help torrentproject.se to stay alive .
Add links of torrentproject.se in your favorite forum, blog, youtube, facebook, twitter etc.
reviews
140
torrent contents

x-art_addison_tarde_espanola_720.mp4 torrent

x-art_addison_tarde_espanola_720.mp4449.09 Mb torrent search

Sample info:
Duration: 00:18:31.75, start: 0.000000, bitrate: 3388 kb/s
Stream #0.0(eng): Video: mpeg4 (Simple Profile), yuv420p, 1280x720 [PAR 1:1 DAR 16:9], 3265 kb/s, 23.98 fps, 23.98 tbr, 1199 tbn, 1199 tbc
Stream #0.1(eng): Audio: aac, 48000 Hz, stereo, s16, 118 kb/s
screenshots
x art addison tarde torrent screenshot 15CA02087594471B9E0DFEFAE0E4E21B742B8537 x art addison tarde  torrent screenshot 15ca02087594471b9e0dfefae0e4e21b742b8537 torrent x art addison tarde
x-art_addison_tarde_espanola_720.mp4 images are auto generated please report any inapropriate images
 

related search cloud

 espanola  tarde  addison