Torrent Search | Torrent Meta Search | Widgets

Pink Panther and Pals 103 Pink Magic; Party Animals; Pink N Putt C W

       
174.77 Mb
found 3 years ago
▲ seeders: 3 ▼ leechers:0
your vote:
real:
fake:
Direct Download
THANK YOU
download torrent
  Direct Downloadsponsored

Pink Panther and Pals 103 Pink Magic; Party Animals; Pink N Putt C W torrent

Information about the torrent Pink Panther and Pals 103 Pink Magic; Party Animals; Pink N Putt C W. Seeders, leechers and torrent status is updated everyday.

If you want to download the video torrent Pink Panther and Pals 103 Pink Magic; Party Animals; Pink N Putt C W you will need a torrent client.

Torrent Metasearch.

Torrent verified by kat.ph.

tracker
seeders
leechers
↓ torrent client compatible list

↑ hide torrent client compatible list

Help torrentproject.se to stay alive .
Add links of torrentproject.se in your favorite forum, blog, youtube, facebook, twitter etc.
reviews
140
torrent contents

Pink Panther and Pals - 103 - Pink Magic; Party Animals; Pink N Putt [C-W].avi torrent

Pink Panther and Pals - 103 - Pink Magic; Party Animals; Pink N Putt [C-W].avi174.77 Mb torrent search

Sample info:
Duration: 00:21:32.95, start: 0.000000, bitrate: 1133 kb/s
Stream #0.0: Video: mpeg4 (Advanced Simple Profile), yuv420p, 704x396 [PAR 1:1 DAR 16:9], 23.98 tbr, 23.98 tbn, 23.98 tbc
Stream #0.1: Audio: mp3, 48000 Hz, stereo, s16, 128 kb/s
screenshots
Pink Panther and Pals torrent screenshot 15E5E05B92A4BEE72933FDA676E045CA2AAD0A59 Pink Panther and Pals  torrent screenshot 15e5e05b92a4bee72933fda676e045ca2aad0a59 torrent Pink Panther and Pals
Pink Panther and Pals - 103 - Pink Magic; Party Animals; Pink N Putt [C-W].avi images are auto generated please report any inapropriate images
 

related search cloud

 pink  animals  putt  party  magic  panther  pals