Torrent Search | Torrent Meta Search | Widgets

WowGirls Who Let The Dogs Out

985.18 Mb
found 1 year ago
▲ seeders: 0 ▼ leechers:1
your vote:
real:
fake:
THANK YOU
download torrent

WowGirls Who Let The Dogs Out torrent

Information about the torrent WowGirls Who Let The Dogs Out. Seeders, leechers and torrent status is updated everyday.

If you want to download the hdrip torrent WowGirls Who Let The Dogs Out you will need a torrent client.

Torrent Metasearch.

tracker
seeders
leechers
↓ torrent client compatible list

↑ hide torrent client compatible list

reviews
140
torrent contents

WowGirls - Who Let The Dogs-Out torrent

WowGirls - Who Let The Dogs-Out
WowGirls - Who Let The Dogs Out [1080p].mp4985.18 Mb torrent search
RARBG.com.txt34 bytes torrent search

Sample info:
Duration: 00:25:02.10, start: 0.000000, bitrate: 5501 kb/s
Stream #0:0	: Video: h264 (High) (avc1 / 0x31637661), yuv420p, 1920x1080, 5405 kb/s, 29.97 fps, 29.97 tbr, 30k tbn, 59.94 tbc
handler_name	: VideoHandler
Stream #0:1	: Audio: aac (mp4a / 0x6134706D), 44100 Hz, stereo, s16, 88 kb/s
handler_name	: SoundHandler
screenshots
WowGirls Who Let The torrent screenshot 1647DAC12B19190140D91D2A23A7DD6C08E6D3EF WowGirls Who Let The  torrent screenshot 1647dac12b19190140d91d2a23a7dd6c08e6d3ef torrent WowGirls Who Let The
Images are auto generated please report any inapropriate images
you may be interested in these torrents seeders leechers size found
WowGirls Who Let The Dogs Out 1080p     10 1 985.18 Mb 1 year ago

WowGirls - Who Let The Dogs Out [1080p].mp4


WowGirls Who Let The Dogs Out 1080P 0 1 987.5 Mb 1 year ago

SIS001影视联盟.gif WowGirls-Who Let The Dogs Out 1080P.mp4 WowGirls-Who Le


 

related search cloud

 wowgirls  dogs  rarbg