Torrent Search | Torrent Meta Search | Widgets

HorribleSubs Shingeki no Kyojin S2 37 1080p mkv

       
538.67 Mb
found 2 months ago
▲ seeders: 367 ▼ leechers:4
your vote:
real:
fake:
download torrent

HorribleSubs Shingeki no Kyojin S2 37 1080p mkv torrent

Information about the torrent HorribleSubs Shingeki no Kyojin S2 37 1080p mkv. Seeders, leechers and torrent status is updated everyday.

If you want to download the hdrip torrent HorribleSubs Shingeki no Kyojin S2 37 1080p mkv you will need a torrent client.

Torrent Metasearch.

Torrent verified by thepiratebay.se.

tracker
seeders
leechers
↓ torrent client compatible list

↑ hide torrent client compatible list

torrent contents

[HorribleSubs] Shingeki no Kyojin S2 - 37 [1080p].mkv torrent

[HorribleSubs] Shingeki no Kyojin S2 - 37 [1080p].mkv538.67 Mb torrent search

Sample info:
Duration: 00:23:40.13, start: 0.000000, bitrate: 3181 kb/s
Stream #0:0: Video: h264 (High), yuv420p, 1920x1080 [SAR 1:1 DAR 16:9], 23.81 fps, 23.81 tbr, 1k tbn, 47.95 tbc (default)
BPS	: 3049796
BPS-eng	: 3049796
DURATION	: 00:23:40.045000000
DURATION-eng	: 00:23:40.045000000
NUMBER_OF_FRAMES: 34048
NUMBER_OF_FRAMES-eng: 34048
NUMBER_OF_BYTES : 541356108
NUMBER_OF_BYTES-eng: 541356108
_STATISTICS_WRITING_APP: no_variable_data
_STATISTICS_WRITING_APP-eng: no_variable_data
_STATISTICS_WRITING_DATE_UTC: 1970-01-01 00:00:00
_STATISTICS_WRITING_DATE_UTC-eng: 1970-01-01 00:00:00
_STATISTICS_TAGS: BPS DURATION NUMBER_OF_FRAMES NUMBER_OF_BYTES
_STATISTICS_TAGS-eng: BPS DURATION NUMBER_OF_FRAMES NUMBER_OF_BYTES
Stream #0:1(jpn): Audio: aac (LC), 44100 Hz, stereo, fltp (default)
BPS	: 128000
BPS-eng	: 128000
DURATION	: 00:23:40.132000000
DURATION-eng	: 00:23:40.132000000
NUMBER_OF_FRAMES: 61160
NUMBER_OF_FRAMES-eng: 61160
NUMBER_OF_BYTES : 22722118
NUMBER_OF_BYTES-eng: 22722118
_STATISTICS_WRITING_APP: no_variable_data
_STATISTICS_WRITING_APP-eng: no_variable_data
_STATISTICS_WRITING_DATE_UTC: 1970-01-01 00:00:00
_STATISTICS_WRITING_DATE_UTC-eng: 1970-01-01 00:00:00
_STATISTICS_TAGS: BPS DURATION NUMBER_OF_FRAMES NUMBER_OF_BYTES
_STATISTICS_TAGS-eng: BPS DURATION NUMBER_OF_FRAMES NUMBER_OF_BYTES
Stream #0:2(eng): Subtitle: ass (default)
BPS	: 84
BPS-eng	: 84
DURATION	: 00:22:11.750000000
DURATION-eng	: 00:22:11.750000000
NUMBER_OF_FRAMES: 232
NUMBER_OF_FRAMES-eng: 232
NUMBER_OF_BYTES : 14009
NUMBER_OF_BYTES-eng: 14009
_STATISTICS_WRITING_APP: no_variable_data
_STATISTICS_WRITING_APP-eng: no_variable_data
_STATISTICS_WRITING_DATE_UTC: 1970-01-01 00:00:00
_STATISTICS_WRITING_DATE_UTC-eng: 1970-01-01 00:00:00
_STATISTICS_TAGS: BPS DURATION NUMBER_OF_FRAMES NUMBER_OF_BYTES
_STATISTICS_TAGS-eng: BPS DURATION NUMBER_OF_FRAMES NUMBER_OF_BYTES
Stream #0:3: Attachment: ttf
filename	: OpenSans-Semibold.ttf
mimetype	: application/x-truetype-font
screenshots
Images are auto generated please report any inapropriate images
 

related search cloud

 kyojin  shingeki  horriblesubs