Torrent Search | Torrent Meta Search | Widgets

BackRoom Casting Couch Sadie

450.09 Mb
found 1 year ago
▲ seeders: 4 ▼ leechers:1
your vote:
real:
fake:
Direct Download
THANK YOU
download torrent
  Direct Downloadsponsored

BackRoom Casting Couch Sadie torrent

Information about the torrent BackRoom Casting Couch Sadie. Seeders, leechers and torrent status is updated everyday.

If you want to download the video torrent BackRoom Casting Couch Sadie you will need a torrent client.

Torrent Metasearch.

tracker
seeders
leechers
↓ torrent client compatible list

↑ hide torrent client compatible list

Help torrentproject.se to stay alive .
Add links of torrentproject.se in your favorite forum, blog, youtube, facebook, twitter etc.
reviews
140
torrent contents

BackRoom Casting Couch - Sadie.wmv torrent

BackRoom Casting Couch - Sadie.wmv450.09 Mb torrent search

Sample info:
Duration: 00:41:56.44, start: 0.000000, bitrate: 1500 kb/s
Stream #0.0: Audio: wmav2, 44100 Hz, 2 channels, s16, 96 kb/s
Stream #0.1: Video: wmv3 (Main), yuv420p, 640x360, 1390 kb/s, PAR 1:1 DAR 16:9, 29.97 tbr, 1k tbn, 1k tbc
screenshots
BackRoom Casting Couch Sadie torrent screenshot 17117C6AF8E6C2581A3DDD3F16C4CAFB2CED3E01 BackRoom Casting Couch Sadie torrent screenshot 17117c6af8e6c2581a3ddd3f16c4cafb2ced3e01 torrent BackRoom Casting Couch Sadie
BackRoom Casting Couch - Sadie.wmv images are auto generated please report any inapropriate images
 

related search cloud

 sadie  couch  casting  backroom