Torrent Search | Torrent Meta Search | Widgets

Hedwig and the Angry Inch (2001)

       
699.63 Mb
found 7 years ago
▲ seeders: 15 ▼ leechers:2
your vote:
real:
fake:

Hedwig and the Angry Inch

2001 · 95 min · 7.8/10 (27k votes) in imdb
Comedy, Drama, Music, Musical
An anatomically incorrect rock odyssey
A transsexual punk-rock girl from East Berlin tours the U.S. with her band as she tells her life story and follows the former lover/band-mate who stole her songs.
download torrent

Hedwig and the Angry Inch (2001) torrent

Information about the torrent Hedwig and the Angry Inch (2001). Seeders, leechers and torrent status is updated several times per day.

If you want to download the video torrent Hedwig and the Angry Inch (2001) you will need a torrent client.

Torrent Metasearch.

Torrent verified by isohunt.com.

tracker
seeders
leechers
↓ torrent client compatible list

↑ hide torrent client compatible list

torrent contents

Hedwig and the Angry Inch (2001) torrent

Hedwig and the Angry Inch (2001)
Hedwig and the Angry Inch.avi699.63 Mb torrent search

Sample info:
Duration: 01:27:48.04, start: 0.000000, bitrate: 1114 kb/s
Stream #0.0: Video: mpeg4 (Simple Profile), yuv420p, 716x550 [PAR 64:45 DAR 22912:12375], 25 tbr, 25 tbn, 25 tbc
Stream #0.1: Audio: mp3, 48000 Hz, stereo, s16, 128 kb/s
screenshots
Images are auto generated please report any inapropriate images
 

related search cloud

 inch  angry  hedwig