Torrent Search | Torrent Meta Search | Widgets

厲陰宅

1.24 Gb
found 3 years ago
▲ seeders: 1 ▼ leechers:0
your vote:
real:
fake:
download torrent

厲陰宅 torrent

Information about the torrent 厲陰宅. Seeders, leechers and torrent status is updated several times per day.

If you want to download the video torrent 厲陰宅 you will need a torrent client.

Torrent Metasearch.

comments/reviews
140
torrent contents

厲陰宅 torrent

厲陰宅
The.Conjuring.2013.WEB-DL.X264.AC3.mkv1.24 Gb torrent search
FDZVET2YMXHPG_by_FDZone.ORG.txt torrent search

Sample info:
Duration: 01:47:19.64, start: 0.000000, bitrate: 1649 kb/s
Stream #0:0(eng): Video: h264 (High), yuv420p, 784x318 [SAR 1:1 DAR 392:159], 25 fps, 25 tbr, 1k tbn, 50 tbc (default)
Stream #0:1: Audio: ac3, 44100 Hz, stereo, s16, 448 kb/s (default)
screenshots
Images are auto generated please report any inapropriate images
 

related search cloud

 fdzone  ymxhpg  fdzvet  conjuring