Torrent Search | Torrent Meta Search | Widgets

Max Hardcore Vs Yumi & Layla

       
308.2 Mb
found 6 years ago
▲ seeders: 0 ▼ leechers:1
your vote:
real:
fake:
download torrent

Max Hardcore Vs Yumi & Layla torrent

Information about the torrent Max Hardcore Vs Yumi & Layla. Seeders, leechers and torrent status is updated several times per day.

If you want to download the adult torrent Max Hardcore Vs Yumi & Layla you will need a torrent client.

Torrent Metasearch.

Torrent verified by kat.ph.

tracker
seeders
leechers
↓ torrent client compatible list

↑ hide torrent client compatible list

comments/reviews
140
torrent contents

Max Hardcore Vs Yumi & Layla_www.linkindexxx.com torrent

Max Hardcore Vs Yumi & Layla_www.linkindexxx.com
1727 - Yumi and Layla.avi.jpg224.79 Kb torrent search
1727 - Yumi and Layla_www.linkindexxx.com.avi277.43 Mb torrent search
Facial Abuse Discount and Info.txt377 bytes torrent search
www.ghettogaggers.com-monet devine.wmv30.34 Mb torrent search
www.ghettogaggers.com-monet devine.wmv.jpg211.81 Kb torrent search

Sample info:
Duration: 00:33:44.33, start: 0.000000, bitrate: 1149 kb/s
Stream #0.0: Video: mpeg4, yuv420p, 320x240 [PAR 1:1 DAR 4:3], 29.97 tbr, 29.97 tbn, 29.97 tbc
Stream #0.1: Audio: mp3, 44100 Hz, 1 channels, s16, 114 kb/s
screenshots
Images are auto generated please report any inapropriate images
 

related search cloud

 layla  yumi  ghettogaggers  monet  linkindexxx  devine  info  abuse  facial  hardcore