Torrent Search | Torrent Meta Search | Widgets

Resacon 2 Ahora En Tailandia TS HQ Spanish

       
1.41 Gb
found 3 years ago
▲ seeders: 5 ▼ leechers:1
your vote:
real:
fake:
Direct Download
THANK YOU
download torrent
  Direct Downloadsponsored

Resacon 2 Ahora En Tailandia TS HQ Spanish torrent

Information about the torrent Resacon 2 Ahora En Tailandia TS HQ Spanish. Seeders, leechers and torrent status is updated several times per day.

If you want to download the video torrent Resacon 2 Ahora En Tailandia TS HQ Spanish you will need a torrent client.

Torrent Metasearch.

.

tracker
seeders
leechers
↓ torrent client compatible list

↑ hide torrent client compatible list

Help torrentproject.se to stay alive .
Add links of torrentproject.se in your favorite forum, blog, youtube, facebook, twitter etc.
reviews
140
torrent contents

Resacon 2 Ahora En Tailandia [TS-HQ][Spanish][www.consolasatope.com].avi torrent

Resacon 2 Ahora En Tailandia [TS-HQ][Spanish][www.consolasatope.com].avi1.41 Gb torrent search

Sample info:
Duration: 01:39:36.35, start: 0.000000, bitrate: 2028 kb/s
Stream #0.0: Video: mpeg4, yuv420p, 720x288 [PAR 1:1 DAR 5:2], 23.98 tbr, 23.98 tbn, 23.98 tbc
Stream #0.1: Audio: mp3, 44100 Hz, 2 channels, s16, 192 kb/s
screenshots
Resacon 2 Ahora En torrent screenshot 1B5B227A59D18E1189B0C08FB55C9F6A57150DA7 Resacon 2 Ahora En  torrent screenshot 1b5b227a59d18e1189b0c08fb55c9f6a57150da7 torrent Resacon 2 Ahora En
Resacon 2 Ahora En Tailandia [TS-HQ][Spanish][www.consolasatope.com].avi images are auto generated please report any inapropriate images
 

related search cloud

 consolasatope  spanish  tailandia  ahora  resacon