Torrent Search | Torrent Meta Search | Widgets

Color Climax Teenage Bestsellers # 238

       
619.78 Mb
found 5 years ago
▲ seeders: 2 ▼ leechers:0
your vote:
real:
fake:
download torrent

Color Climax Teenage Bestsellers # 238 torrent

Information about the torrent Color Climax Teenage Bestsellers # 238. Seeders, leechers and torrent status is updated everyday.

If you want to download the video torrent Color Climax Teenage Bestsellers # 238 you will need a torrent client.

Torrent Metasearch.

.

tracker
seeders
leechers
↓ torrent client compatible list

↑ hide torrent client compatible list

comments/reviews
140
torrent contents

Color Climax Teenage Bestsellers # 238.avi torrent

Color Climax Teenage Bestsellers # 238.avi619.78 Mb torrent search

Sample info:
Duration: 00:51:19.60, start: 0.000000, bitrate: 1688 kb/s
Stream #0.0: Video: mpeg4 (Simple Profile), yuv420p, 640x480 [PAR 1:1 DAR 4:3], 25 tbr, 25 tbn, 25 tbc
Stream #0.1: Audio: mp3, 44100 Hz, stereo, s16, 128 kb/s
screenshots
Images are auto generated please report any inapropriate images
 

related search cloud

 bestsellers  teenage  climax  color