Torrent Search | Torrent Meta Search | Widgets

fset454

1.18 Gb
found 1 year ago
▲ seeders: 3 ▼ leechers:3
your vote:
real:
fake:
Direct Download
THANK YOU
download torrent
  Direct Downloadsponsored

fset454 torrent

Information about the torrent fset454. A torrent file stores metadata that can be used from a BitTorrent client.

If you want to download the video torrent fset454 you will need a torrent client.

Torrent Metasearch.

tracker
seeders
leechers
↓ torrent client compatible list

↑ hide torrent client compatible list

Help torrentproject.se to stay alive .
Add links of torrentproject.se in your favorite forum, blog, youtube, facebook, twitter etc.
reviews
140
torrent contents

fset454.mp4 torrent

fset454.mp41.18 Gb torrent search

Sample info:
Duration: 02:17:13.63, start: 0.000000, bitrate: 1229 kb/s
Stream #0:0(eng): Video: h264 (Baseline) (avc1 / 0x31637661), yuv420p, 720x396 [SAR 1:1 DAR 20:11], 1099 kb/s, 30 fps, 30 tbr, 30k tbn, 60 tbc
creation_time	: 2013-09-17 20:51:02
handler_name	: Video Media Handler
Stream #0:1(eng): Audio: aac (mp4a / 0x6134706D), 44100 Hz, stereo, s16, 126 kb/s
creation_time	: 2013-09-17 20:51:02
handler_name	: Sound Media Handler
screenshots
fset454 torrent screenshot 1C0DB9F938BCA55E9EDEA7ADB1D35DFFCBE2F90C fset454 torrent screenshot 1c0db9f938bca55e9edea7adb1d35dffcbe2f90c torrent fset454
fset454.mp4 images are auto generated please report any inapropriate images
 

related search cloud

 fset