Torrent Search | Torrent Meta Search | Widgets

PornoLab Brazzers Live 38 ZZ HD

1.97 Gb
found 1 year ago
▲ seeders: 2 ▼ leechers:2
your vote:
real:
fake:
Direct Download
THANK YOU
download torrent
  Direct Downloadsponsored

PornoLab Brazzers Live 38 ZZ HD torrent

Information about the torrent PornoLab Brazzers Live 38 ZZ HD. Seeders, leechers and torrent status is updated several times per day.

If you want to download the hdrip torrent PornoLab Brazzers Live 38 ZZ HD you will need a torrent client.

Torrent Metasearch.

tracker
seeders
leechers
↓ torrent client compatible list

↑ hide torrent client compatible list

Help torrentproject.se to stay alive .
Add links of torrentproject.se in your favorite forum, blog, youtube, facebook, twitter etc.
reviews
140
torrent contents

PornoLab{Brazzers Live 38}ZZ_HD torrent

PornoLab{Brazzers Live 38}ZZ_HD
bzl_bzlive38_720p_3800.mp41.97 Gb torrent search

Sample info:
Duration: 01:09:00.17, start: 0.000000, bitrate: 4095 kb/s
Stream #0:0	: Video: h264 (High) (avc1 / 0x31637661), yuv420p, 1280x720 [SAR 1:1 DAR 16:9], 3791 kb/s, 29.97 fps, 29.97 tbr, 30k tbn, 59.94 tbc
handler_name	: VideoHandler
Stream #0:1	: Audio: aac (mp4a / 0x6134706D), 48000 Hz, stereo, s16, 128 kb/s
handler_name	: SoundHandler
Stream #0:2	: Data: none (rtp	/ 0x20707472)
creation_time	: 2013-08-13 07:12:44
handler_name	: GPAC ISO Hint Handler
Stream #0:3	: Data: none (rtp	/ 0x20707472)
creation_time	: 2013-08-13 07:13:30
handler_name	: GPAC ISO Hint Handler
screenshots
PornoLab Brazzers Live 38 torrent screenshot 1D5578D1CF00BB332CC53F1C3CEE460DE9CC14D5 PornoLab Brazzers Live 38  torrent screenshot 1d5578d1cf00bb332cc53f1c3cee460de9cc14d5 torrent PornoLab Brazzers Live 38
PornoLab{Brazzers Live 38}ZZ_HD images are auto generated please report any inapropriate images
you may be interested in these torrents seeders leechers size found
PornoLab Brazzers Live 38 ZZ 1 0 1.07 Gb 1 year ago

bzl_bzlive38_480p_2000.mp4


PornoLab Brazzers Live 38 ZZ HD 0 1 1.97 Gb 4 months ago

bzl_bzlive38_720p_3800.mp4


 

related search cloud

 bzlive  live  brazzers  pornolab