Torrent Search | Torrent Meta Search | Widgets

Anastasia Brill Despedida Anal ReventandoCulos 09 07 (2011) HD 720p

       
1.07 Gb
found 3 years ago
▲ seeders: 6 ▼ leechers:4
your vote:
real:
fake:
Direct Download
THANK YOU
download torrent
  Direct Downloadsponsored

Anastasia Brill Despedida Anal ReventandoCulos 09 07 (2011) HD 720p torrent

Information about the torrent Anastasia Brill Despedida Anal ReventandoCulos 09 07 (2011) HD 720p. Seeders, leechers and torrent status is updated several times per day.

If you want to download the anal torrent Anastasia Brill Despedida Anal ReventandoCulos 09 07 (2011) HD 720p you will need a torrent client.

Torrent Metasearch.

.

tracker
seeders
leechers
↓ torrent client compatible list

↑ hide torrent client compatible list

Help torrentproject.se to stay alive .
Add links of torrentproject.se in your favorite forum, blog, youtube, facebook, twitter etc.
reviews
140
torrent contents

Anastasia.Brill.Despedida.Anal.ReventandoCulos.09.07.2011.HD.720p.mp4 torrent

Anastasia.Brill.Despedida.Anal.ReventandoCulos.09.07.2011.HD.720p.mp41.07 Gb torrent search

Sample info:
Duration: 00:37:01.12, start: 0.000000, bitrate: 4123 kb/s
Stream #0.0(eng): Video: h264, yuv420p, 1280x720 [PAR 1:1 DAR 16:9], 3993 kb/s, 25 fps, 25 tbr, 25k tbn, 50 tbc
creation_time	: 2011-09-01 16:17:05
Stream #0.1(eng): Audio: aac, 48000 Hz, stereo, s16, 125 kb/s
creation_time	: 2011-09-01 16:17:05
screenshots
Anastasia Brill Despedida Anal torrent screenshot 1D5A8EAE7A662DA57BE094E58B03D1DFE823047B Anastasia Brill Despedida Anal  torrent screenshot 1d5a8eae7a662da57be094e58b03d1dfe823047b torrent Anastasia Brill Despedida Anal
Anastasia.Brill.Despedida.Anal.ReventandoCulos.09.07.2011.HD.720p.mp4 images are auto generated please report any inapropriate images
 

related search cloud

 reventandoculos  anal  despedida  brill  anastasia