Torrent Search | Torrent Meta Search | Widgets

Tokyo Hunter With Thai Natt Chanapa

353.48 Mb
found 4 years ago
▲ seeders: 2 ▼ leechers:1
your vote:
real:
fake:
THANK YOU
download torrent

Tokyo Hunter With Thai Natt Chanapa torrent

Information about the torrent Tokyo Hunter With Thai Natt Chanapa. Seeders, leechers and torrent status is updated several times per day.

If you want to download the video torrent Tokyo Hunter With Thai Natt Chanapa you will need a torrent client.

Torrent Metasearch.

tracker
seeders
leechers
↓ torrent client compatible list

↑ hide torrent client compatible list

reviews
140
torrent contents

Tokyo.Hunter.With.Thai.Natt.Chanapa torrent

Tokyo.Hunter.With.Thai.Natt.Chanapa
Tokyo.Hunter.With.Thai.Natt.Chanapa.avi353.08 Mb torrent search
SCREENS1_Tokyo.Hunter.With.Thai.Natt.Chanapa.jpg383.71 Kb torrent search
POSTER1_Tokyo.Hunter.With.Thai.Natt.Chanapa.jpg22.63 Kb torrent search
nfo.nfo59 bytes torrent search

Sample info:
Duration: 01:49:26.92, start: 0.000000, bitrate: N/A
Stream #0.0: Video: h264, yuv420p, 576x384 [PAR 1:1 DAR 3:2], 29.97 tb(r)
Stream #0.1: Audio: libfaad, 44100 Hz, stereo
screenshots
Tokyo Hunter With Thai torrent screenshot 1D785E51F47C664F0798F87D7E50965335B7C2F1 Tokyo Hunter With Thai  torrent screenshot 1d785e51f47c664f0798f87d7e50965335b7c2f1 torrent Tokyo Hunter With Thai
Images are auto generated please report any inapropriate images
 

related search cloud

 tokyo  thai  natt  hunter  chanapa  poster  screens