Torrent Search | Torrent Meta Search | Widgets

HotkinkyJo Anal Smoke Cum On Face And Cock InAss

540.16 Mb
found 1 year ago
▲ seeders: 1 ▼ leechers:4
your vote:
real:
fake:
Direct Download
THANK YOU
download torrent
  Direct Downloadsponsored

HotkinkyJo Anal Smoke Cum On Face And Cock InAss torrent

Information about the torrent HotkinkyJo Anal Smoke Cum On Face And Cock InAss. Seeders, leechers and torrent status is updated several times per day.

If you want to download the anal torrent HotkinkyJo Anal Smoke Cum On Face And Cock InAss you will need a torrent client.

Torrent Metasearch.

tracker
seeders
leechers
↓ torrent client compatible list

↑ hide torrent client compatible list

Help torrentproject.se to stay alive .
Add links of torrentproject.se in your favorite forum, blog, youtube, facebook, twitter etc.
reviews
140
torrent contents

HotkinkyJo - Anal Smoke, Cum On Face And Cock InAss torrent

HotkinkyJo - Anal Smoke, Cum On Face And Cock InAss
RARBG.com.txt34 bytes torrent search
HotkinkyJo - Anal Smoke, Cum On Face And Cock In Ass [1080p].mp4540.16 Mb torrent search

Sample info:
Duration: 00:09:37.10, start: 0.000000, bitrate: 7851 kb/s
Stream #0:0	: Video: h264 (High) (avc1 / 0x31637661), yuv420p, 1920x1080 [SAR 1:1 DAR 16:9], 7717 kb/s, 50 fps, 50 tbr, 200 tbn, 100 tbc
creation_time	: 2013-08-04 18:21:19
handler_name	: video
Stream #0:1	: Audio: aac (mp4a / 0x6134706D), 44100 Hz, stereo, s16, 131 kb/s
creation_time	: 2013-08-04 18:21:33
handler_name	: sound
screenshots
HotkinkyJo Anal Smoke Cum torrent screenshot 1E8E06704CB794BA92CE8AFED4A3548AACFA054D HotkinkyJo Anal Smoke Cum  torrent screenshot 1e8e06704cb794ba92ce8afed4a3548aacfa054d torrent HotkinkyJo Anal Smoke Cum
HotkinkyJo - Anal Smoke, Cum On Face And Cock InAss images are auto generated please report any inapropriate images
 

related search cloud

 cock  face  smoke  hotkinkyjo  anal  rarbg