Torrent Search | Torrent Meta Search | Widgets

In The Vip xXx Ash Hollywood

       
585.66 Mb
found 3 years ago
▲ seeders: 0 ▼ leechers:2
your vote:
real:
fake:
Direct Download
THANK YOU
download torrent
  Direct Downloadsponsored

In The Vip xXx Ash Hollywood torrent

Information about the torrent In The Vip xXx Ash Hollywood. Seeders, leechers and torrent status is updated several times per day.

If you want to download the adult torrent In The Vip xXx Ash Hollywood you will need a torrent client.

Torrent Metasearch.

.

tracker
seeders
leechers
↓ torrent client compatible list

↑ hide torrent client compatible list

Help torrentproject.se to stay alive .
Add links of torrentproject.se in your favorite forum, blog, youtube, facebook, twitter etc.
reviews
140
torrent contents

In The Vip xXx Ash Hollywood(www.mastitorrents.com) torrent

In The Vip xXx Ash Hollywood(www.mastitorrents.com)
In The Vip xXx Ash Hollywood(www.mastitorrents.com).mp4585.66 Mb torrent search
www.mastitorrents.com.nfo310 bytes torrent search

Sample info:
Duration: 00:53:10.52, start: 0.000000, bitrate: 1539 kb/s
Stream #0.0	: Video: h264, yuv420p, 768x432, 29.97 tb(r)
Stream #0.1	: Audio: libfaad, 32000 Hz, stereo
screenshots
In The Vip xXx torrent screenshot 1EB94622A833E9C86C33F6708389947A0EBEADB3 In The Vip xXx  torrent screenshot 1eb94622a833e9c86c33f6708389947a0ebeadb3 torrent In The Vip xXx
In The Vip xXx Ash Hollywood(www.mastitorrents.com) images are auto generated please report any inapropriate images
you may be interested in these torrents seeders leechers size found
MOMS IN CONTROL Leigh Darby Stella Cox My Stepmom The Control Freak 10 20 (2014) NEW OCTOBER 20th (2014) SD MP4 411 812 567.64 Mb 14 hours ago

MOMS IN CONTROL Leigh Darby, Stella Cox My Stepmom The Control Freak 10.20.2014 NEW OCTOBER 20th, 2014 SD MP4.mp4


Kail Kail gets pounded up in pig tails Cocaine 266 5 284.44 Mb 10 months ago

Kail (Kail gets pounded up in pig tails) Cocaine.mp4


Famous Toons Facial 237 37 4.28 Gb 7 months ago

sealab-2021.avi Kim-possible-sex-video.avi futurama-new.avi incredibles-sex-


Big Tits At School Sienna Day Big Tits in the Field 10 20 (2014) Brazzers NEW October 20 2014 233 129 241.13 Mb 1 day ago

btas_sienna_day_ap081414_480p_1000.mp4


Nubiles Porn Dila Foxy Di Caught In The Act February 18 (2014) 192 14 280.55 Mb 8 months ago

[Nubiles-Porn] Dila, Foxy Di (Caught In The Act) February 18, 2014.mp4


Outdoor fucking with sexy blonde in glasses 187 27 173.34 Mb 8 months ago

Outdoor fucking with sexy blonde in glasses.mp4


MOMS IN CONTROL Mia Malkova Rebecca Moore Mia and the MILF 10 20 (2014) NEW OCTOBER 20th (2014) SD MP4 182 206 664.12 Mb 14 hours ago

MOMS IN CONTROL Mia Malkova,Rebecca Moore Mia and the MILF 10.20.2014 NEW OCTOBER 20th, 2014 SD MP4.mp4



PupilsTeens 14 05 21 Teen With Big Tits In Anal Action XXX 1080P MP4 GUSH rarbg 104 135 1.37 Gb 6 hours ago

RARBG.com.txt gush.lst140521twbigt.mp4


AssPhilosopy 14 09 24 Busty Skiny In Anal Sex XXX 1080P MP4 GUSH rarbg 101 138 969.77 Mb 7 hours ago

RARBG.com.txt gush.assp140924bsina.mp4 gush.a


 

related search cloud

 mastitorrents  hollywood