Torrent Search | Torrent Meta Search | Widgets

In The Vip xXx Ash Hollywood

       
585.66 Mb
found 3 years ago
▲ seeders: 0 ▼ leechers:2
your vote:
real:
fake:
THANK YOU
download torrent
  Direct Downloadsponsored

In The Vip xXx Ash Hollywood torrent

Information about the torrent In The Vip xXx Ash Hollywood. Seeders, leechers and torrent status is updated several times per day.

If you want to download the adult torrent In The Vip xXx Ash Hollywood you will need a torrent client.

Torrent Metasearch.

.

tracker
seeders
leechers
↓ torrent client compatible list

↑ hide torrent client compatible list

reviews
140
torrent contents

In The Vip xXx Ash Hollywood(www.mastitorrents.com) torrent

In The Vip xXx Ash Hollywood(www.mastitorrents.com)
In The Vip xXx Ash Hollywood(www.mastitorrents.com).mp4585.66 Mb torrent search
www.mastitorrents.com.nfo310 bytes torrent search

Sample info:
Duration: 00:53:10.52, start: 0.000000, bitrate: 1539 kb/s
Stream #0.0	: Video: h264, yuv420p, 768x432, 29.97 tb(r)
Stream #0.1	: Audio: libfaad, 32000 Hz, stereo
screenshots
In The Vip xXx torrent screenshot 1EB94622A833E9C86C33F6708389947A0EBEADB3 In The Vip xXx  torrent screenshot 1eb94622a833e9c86c33f6708389947a0ebeadb3 torrent In The Vip xXx
In The Vip xXx Ash Hollywood(www.mastitorrents.com) images are auto generated please report any inapropriate images
you may be interested in these torrents seeders leechers size found
PublicBang Ria Rodriguez Fucking A Petite Amateur In Public     405 43 286.09 Mb 4 days ago

PublicBang - Ria Rodriguez - Fucking A Petite Amateur In Public.mp4


Scandal Season 2     156 62 5.39 Gb 2 years ago

212 - Truth or Consequences.avi 206 - Spies Like Us.mp4 205 - All Roads Lead to Fitz.mp4


MOMS IN CONTROL Leigh Darby Stella Cox My Stepmom The Control Freak 10 20 (2014) NEW OCTOBER 20th (2014) SD MP4     154 25 567.64 Mb 1 month ago

MOMS IN CONTROL Leigh Darby, Stella Cox My Stepmom The Control Freak 10.20.2014 NEW OCTOBER 20th, 2014 SD MP4.mp4


PublicBang Soffie Latina Milf Anal Fucked In Public NEW Bang Bros November 11 (2014) NEW     126 5 177.41 Mb 10 days ago

PublicBang - Soffie - Latina Milf Anal Fucked In Public NEW (Bang Bros November 11, 2014) NEW.mp4


HardX Bridgette B Bridgette B In Big Titted MILF Scene 1 NEW 21 NOVEMBER (2014) NEW     108 27 401.03 Mb 1 day ago

hardx_27121_01_hd.mp4


Oops I Creampied In My Stepmom 2 XXX DVDRip x264 DivXfacTory 93 66 914.79 Mb 3 days ago

1.jpg d oicims2.mp4 d oicims2.nfo front



In Bed with Victoria Summers (2014) XXX WEB DL SPLIT SCENES 89 186 1.46 Gb 2 days ago

1.jpg 2.jpg 3.jpg 4.jpg 5.jpg


Californication Season 6 COMPLETE 720p HDTV x264 MKV AC3 5 1 Ehhhh 89 21 3.33 Gb 1 month ago

Californication Folder Icon - Ehhhh.ico Episode Guide.txt 0


18OnlyGirls 14 11 21 Magda Parvin And Zarina In Ass Heaven XXX INTERNAL 1080p MP4 KTR rarbg 86 130 808.8 Mb 21 hours ago

18og.14.11.21.magda.parvin.and.zarina.in.ass.heave


 

related search cloud

 mastitorrents  hollywood