Torrent Search | Torrent Meta Search | Widgets

In The Vip xXx Ash Hollywood

       
585.66 Mb
found 3 years ago
▲ seeders: 0 ▼ leechers:2
your vote:
real:
fake:
Direct Download
THANK YOU
download torrent
  Direct Downloadsponsored

In The Vip xXx Ash Hollywood torrent

Information about the torrent In The Vip xXx Ash Hollywood. Seeders, leechers and torrent status is updated several times per day.

If you want to download the adult torrent In The Vip xXx Ash Hollywood you will need a torrent client.

Torrent Metasearch.

.

tracker
seeders
leechers
↓ torrent client compatible list

↑ hide torrent client compatible list

Help torrentproject.se to stay alive .
Add links of torrentproject.se in your favorite forum, blog, youtube, facebook, twitter etc.
reviews
140
torrent contents

In The Vip xXx Ash Hollywood(www.mastitorrents.com) torrent

In The Vip xXx Ash Hollywood(www.mastitorrents.com)
In The Vip xXx Ash Hollywood(www.mastitorrents.com).mp4585.66 Mb torrent search
www.mastitorrents.com.nfo310 bytes torrent search

Sample info:
Duration: 00:53:10.52, start: 0.000000, bitrate: 1539 kb/s
Stream #0.0	: Video: h264, yuv420p, 768x432, 29.97 tb(r)
Stream #0.1	: Audio: libfaad, 32000 Hz, stereo
screenshots
In The Vip xXx torrent screenshot 1EB94622A833E9C86C33F6708389947A0EBEADB3 In The Vip xXx  torrent screenshot 1eb94622a833e9c86c33f6708389947a0ebeadb3 torrent In The Vip xXx
In The Vip xXx Ash Hollywood(www.mastitorrents.com) images are auto generated please report any inapropriate images
you may be interested in these torrents seeders leechers size found
SchoolGirl In Mini Skirt Suck And Fuck In School Bathroom @HaRfAnG@ 759 156 65.83 Mb 7 months ago

SchoolGirl.In.Mini-Skirt.Suck.And.Fuck.In.School.Bathroom.@HaRfAnG@.wmv


Cathy Heaven Cathy Drinks Cum In Wet Orgy 453 27 819.57 Mb 3 years ago

Cathy Heaven - Cathy Drinks Cum In Wet Orgy.wmv


Sexy amateur loves taking a big cock and cum in her ass 415 236 135.83 Mb 4 months ago

Sexy amateur loves taking a big cock and cum in her ass.mp4


Satomi Suzuki fuck in stock     394 47 158.54 Mb 2 years ago

Satomi Suzuki fuck in stock.avi


Lena fuck in the toilet 355 7 366.01 Mb 1 year ago

Lena fuck in the toilet.mp4


Kail Kail gets pounded up in pig tails Cocaine 304 6 284.44 Mb 9 months ago

Kail (Kail gets pounded up in pig tails) Cocaine.mp4


Impossibly tight pussy stretches to take fat cock in casting 256 47 162.47 Mb 8 months ago

Impossibly tight pussy stretches to take fat cock in casting.mp4


Homemade porn in the kitchen 253 7 64.27 Mb 7 months ago

Homemade porn in the kitchen.mp4


Famous Toons Facial 236 35 4.28 Gb 6 months ago

sealab-2021.avi Kim-possible-sex-video.avi futurama-new.avi incredibles-sex-


Scandal Season 2     234 78 5.39 Gb 1 year ago

212 - Truth or Consequences.avi 206 - Spies Like Us.mp4 205 - All Roads Lead to Fitz.mp4


 

related search cloud

 mastitorrents  hollywood