Torrent Search | Torrent Meta Search | Widgets

In The Vip xXx Ash Hollywood

       
585.66 Mb
found 3 years ago
▲ seeders: 0 ▼ leechers:1
your vote:
real:
fake:
Direct Download
THANK YOU
download torrent
  Direct Downloadsponsored

In The Vip xXx Ash Hollywood torrent

Information about the torrent In The Vip xXx Ash Hollywood. Seeders, leechers and torrent status is updated several times per day.

If you want to download the adult torrent In The Vip xXx Ash Hollywood you will need a torrent client.

Torrent Metasearch.

.

tracker
seeders
leechers
↓ torrent client compatible list

↑ hide torrent client compatible list

Help torrentproject.se to stay alive .
Add links of torrentproject.se in your favorite forum, blog, youtube, facebook, twitter etc.
reviews
140
torrent contents

In The Vip xXx Ash Hollywood(www.mastitorrents.com) torrent

In The Vip xXx Ash Hollywood(www.mastitorrents.com)
In The Vip xXx Ash Hollywood(www.mastitorrents.com).mp4585.66 Mb torrent search
www.mastitorrents.com.nfo310 bytes torrent search

Sample info:
Duration: 00:53:10.52, start: 0.000000, bitrate: 1539 kb/s
Stream #0.0	: Video: h264, yuv420p, 768x432, 29.97 tb(r)
Stream #0.1	: Audio: libfaad, 32000 Hz, stereo
screenshots
In The Vip xXx torrent screenshot 1EB94622A833E9C86C33F6708389947A0EBEADB3 In The Vip xXx  torrent screenshot 1eb94622a833e9c86c33f6708389947a0ebeadb3 torrent In The Vip xXx
In The Vip xXx Ash Hollywood(www.mastitorrents.com) images are auto generated please report any inapropriate images
you may be interested in these torrents seeders leechers size found
Kail Kail gets pounded up in pig tails Cocaine 306 6 284.44 Mb 10 months ago

Kail (Kail gets pounded up in pig tails) Cocaine.mp4


MOMS IN CONTROL Leigh Darby Stella Cox My Stepmom The Control Freak 10 20 (2014) NEW OCTOBER 20th (2014) SD MP4     291 91 567.64 Mb 10 days ago

MOMS IN CONTROL Leigh Darby, Stella Cox My Stepmom The Control Freak 10.20.2014 NEW OCTOBER 20th, 2014 SD MP4.mp4


Famous Toons Facial 237 37 4.28 Gb 7 months ago

sealab-2021.avi Kim-possible-sex-video.avi futurama-new.avi incredibles-sex-


Scandal Season 2     230 53 5.39 Gb 1 year ago

212 - Truth or Consequences.avi 206 - Spies Like Us.mp4 205 - All Roads Lead to Fitz.mp4


Outdoor fucking with sexy blonde in glasses 187 27 173.34 Mb 8 months ago

Outdoor fucking with sexy blonde in glasses.mp4


Big Tits In Uniform Richelle Ryan Sexy Halloween 10 29 (2014) Brazzers NEW October 29 2014 133 60 292.97 Mb 2 days ago

btiu_richelle_ryan_480p_1000.mp4



DorcelClub Black Angelika HARD FUCK IN VERSAILLES IN A PRIVATE CASTLE     115 22 140.41 Mb 2 days ago

DorcelClub - Black Angelika - HARD FUCK IN VERSAILLES, IN A PRIVATE CASTLE.mp4


MOMS IN CONTROL Mia Malkova Rebecca Moore Mia and the MILF 10 20 (2014) NEW OCTOBER 20th (2014) SD MP4 98 28 664.12 Mb 10 days ago

MOMS IN CONTROL Mia Malkova,Rebecca Moore Mia and the MILF 10.20.2014 NEW OCTOBER 20th, 2014 SD MP4.mp4


Incest Homemade Video – Step daddy Fucking Daughter in Living room     76 7 128.98 Mb 10 days ago

Incest Homemade Video – Step daddy Fucking Daughter in Living room.mp4 0


 

related search cloud

 mastitorrents  hollywood