Torrent Search | Torrent Meta Search | Widgets

AOZ 155

1.02 Gb
found 1 year ago
▲ seeders: 2 ▼ leechers:1
your vote:
real:
fake:
Direct Download
THANK YOU
download torrent
  Direct Downloadsponsored

AOZ 155 torrent

Information about the torrent AOZ 155. Seeders, leechers and torrent status is updated several times per day.

If you want to download the video torrent AOZ 155 you will need a torrent client.

Torrent Metasearch.

tracker
seeders
leechers
↓ torrent client compatible list

↑ hide torrent client compatible list

Help torrentproject.se to stay alive .
Add links of torrentproject.se in your favorite forum, blog, youtube, facebook, twitter etc.
reviews
140
torrent contents

javset.com-AOZ-155.mp4 torrent

javset.com-AOZ-155.mp41.02 Gb torrent search

Sample info:
Duration: 01:56:58.54, start: 0.000000, bitrate: 1245 kb/s
Stream #0:0(eng): Audio: aac (mp4a / 0x6134706D), 48000 Hz, stereo, s16, 45 kb/s
creation_time	: 2013-08-05 10:34:21
handler_name	: Mainconcept MP4 Sound Media Handler
Stream #0:1(eng): Video: h264 (Main) (avc1 / 0x31637661), yuv420p, 640x360 [SAR 1:1 DAR 16:9], 1195 kb/s, 29.97 fps, 29.97 tbr, 30k tbn, 59.94 tbc
creation_time	: 2013-08-05 10:34:21
handler_name	: Mainconcept MP4 Video Media Handler
screenshots
AOZ 155 torrent screenshot 1FD09DDCE5D61F79403C0D0C81C711968D394D4E AOZ 155 torrent screenshot 1fd09ddce5d61f79403c0d0c81c711968d394d4e torrent AOZ 155
javset.com-AOZ-155.mp4 images are auto generated please report any inapropriate images
 

related search cloud

 javset