Torrent Search | Torrent Meta Search | Widgets

Szybcy i Wściekli

7.77 Gb
found 3 years ago
▲ seeders: 5 ▼ leechers:1
your vote:
real:
fake:
Direct Download
THANK YOU
download torrent
  Direct Downloadsponsored

Szybcy i Wściekli torrent

Information about the torrent Szybcy i Wściekli. Seeders, leechers and torrent status is updated several times per day.

If you want to download the video torrent Szybcy i Wściekli you will need a torrent client.

Torrent Metasearch.

tracker
seeders
leechers
↓ torrent client compatible list

↑ hide torrent client compatible list

Help torrentproject.se to stay alive .
Add links of torrentproject.se in your favorite forum, blog, youtube, facebook, twitter etc.
reviews
140
torrent contents

Szybcy i Wściekli torrent

Szybcy i Wściekli
Szybcy i Wściekli Tokio Drift.avi2.52 Gb torrent search
Szybcy i Wściekli.avi2.54 Gb torrent search
Za Szybcy Za Wściekli.avi2.71 Gb torrent search

Sample info:
Duration: 01:43:16.64, start: 0.000000, bitrate: 3761 kb/s
Stream #0.0: Video: mpeg4, yuv420p, 1280x544 [PAR 1:1 DAR 40:17], 25.00 tb(r)
Stream #0.1: Audio: mp3, 44100 Hz, stereo, 256 kb/s
you may be interested in these torrents seeders leechers size found
Szybcy i wściekli 6 2013 52 0 696.73 Mb 1 year ago

Szybcy.i.wsciekli.6.2013.PL.THEATRiCAL.BDRip.XviD-BiDA.avi PRZECZYTAJ!!! CIEKAWE CO ZROBISZtxt.


Szybcy i wściekli 6 Fast and Furious 6 (2013) DVDRip XviD AC3 5 1 Lektor PL     19 6 1.66 Gb 1 year ago

Szybcy i wściekli 6 - Fast and Furious 6 (2013).avi


Szybcy i Wściekli 5 PL 2011 miniHD Leon 345 17 1 2.05 Gb 5 months ago

Szybcy.i.Wściekli.5.PL_2011_miniHD(Leon 345).mp4 szybcy-i-


Szybcy i Wściekli 2001 miniHD Leon 345 13 1 1.83 Gb 8 months ago

Szybcy.i.Wściekli.2001_miniHD(Leon 345).mp4 big_1_1105c965e0e0.


Szybcy i Wściekli 6 Fast And Furious 6 (2013) DVDRip XviD AC3 MAXX Lektor rmvb 12 0 454.05 Mb 12 months ago

Szybcy i Wściekli 6 Fast And Furious 6 (2013)[DVDRip.XviD.AC3-MAXX][Lektor].rmvb


Za Szybcy Za Wściekli 2003 miniHD PL Leon 345 9 4 1.8 Gb 5 months ago

Za.Szybcy.Za.Wściekli_2003_miniHD(Leon 345).mp4 big_1_d9


Szybcy i wściekli Tokio Drift 2006 miniHD PL Leon 345 9 3 1.83 Gb 8 months ago

Szybcy.i.wściekli.Tokio.Drift_2006_miniHD(Leon 345).mp4


Szybcy i Wściekli 2001 PL Leon 345 6 1 13.59 Gb 5 months ago

Szybcy.i.Wściekli.2001(Leon 345).mkv big_1_1105c965e0e0.jpg


bestSzybcy i wściekli 6 6 0 696.73 Mb 11 months ago

OPEN.url Szybcy.i.wsciekli.6.2013.PD.BiDA.avi ZOBACZ SAM.TXT


Szybcy i wściekli 6 6 0 1.14 Gb 1 year ago

Szybcy i wściekli 6.avi


 

related search cloud

 szybcy  ciekli  drift  tokio