Torrent Search | Torrent Meta Search | Widgets

Szybcy i Wściekli

7.77 Gb
found 4 years ago
▲ seeders: 0 ▼ leechers:6
your vote:
real:
fake:
download torrent

Szybcy i Wściekli torrent

Information about the torrent Szybcy i Wściekli. Seeders, leechers and torrent status is updated several times per day.

If you want to download the video torrent Szybcy i Wściekli you will need a torrent client.

Torrent Metasearch.

tracker
seeders
leechers
↓ torrent client compatible list

↑ hide torrent client compatible list

reviews
140
torrent contents

Szybcy i Wściekli torrent

Szybcy i Wściekli
Szybcy i Wściekli Tokio Drift.avi2.52 Gb torrent search
Szybcy i Wściekli.avi2.54 Gb torrent search
Za Szybcy Za Wściekli.avi2.71 Gb torrent search

Sample info:
Duration: 01:43:16.64, start: 0.000000, bitrate: 3761 kb/s
Stream #0.0: Video: mpeg4, yuv420p, 1280x544 [PAR 1:1 DAR 40:17], 25.00 tb(r)
Stream #0.1: Audio: mp3, 44100 Hz, stereo, 256 kb/s
you may be interested in these torrents seeders leechers size found
Szybcy i wściekli 6 2013 34 0 696.73 Mb 2 years ago

Szybcy.i.wsciekli.6.2013.PL.THEATRiCAL.BDRip.XviD-BiDA.avi PRZECZYTAJ!!! CIEKAWE CO ZROBISZtxt.


Szybcy i wściekli Tokio Drift 2006 miniHD PL Leon 345    26 11 1.83 Gb 1 year ago

Szybcy.i.wściekli.Tokio.Drift_2006_miniHD(Leon 345).mp4


Za Szybcy Za Wściekli 2003 miniHD PL Leon 345    14 1 1.8 Gb 11 months ago

Za.Szybcy.Za.Wściekli_2003_miniHD(Leon 345).mp4 big_1_d9


Szybcy i Wściekli 2001 miniHD Leon 345 14 4 1.83 Gb 1 year ago

Szybcy.i.Wściekli.2001_miniHD(Leon 345).mp4 big_1_1105c965e0e0.


Szybcy i wściekli 6 Fast and Furious 6 (2013) DVDRip XviD AC3 5 1 Lektor PL     9 0 1.66 Gb 2 years ago

Szybcy i wściekli 6 - Fast and Furious 6 (2013).avi


Szybcy i Wściekli 5 PL 2011 miniHD Leon 345   1    7 4 2.05 Gb 11 months ago

Szybcy.i.Wściekli.5.PL_2011_miniHD(Leon 345).mp4 szybcy-i-


Szybcy i Wściekli 2001 PL Leon 345    6 5 13.59 Gb 11 months ago

Szybcy.i.Wściekli.2001(Leon 345).mkv big_1_1105c965e0e0.jpg


szybcy i wściekli 6 2 357.99 Mb 1 year ago

szybcy i wściekli.rmvb Pobrano z torrenty.org.url


Szybcy i Wściekli 6 Extended (2013) PL Leon 345 6 6 15.26 Gb 1 year ago

Szybcy.i.Wściekli_6_Extended_ 2013(Leon 345).mkv szybc


Szybcy i Wściekli I IV 2001 2009        5 3 3.4 Gb 4 years ago

3. Szybcy i wściekli - Tokio Drift (2006) [CD2] [DVDRip.XviD-Zryty TB] [Lektor PL].avi


 

related search cloud

 szybcy  ciekli  drift  tokio