Torrent Search | Torrent Meta Search | Widgets

Sylvia Saint Double anal club

122.04 Mb
found 4 years ago
▲ seeders: 2 ▼ leechers:1
your vote:
real:
fake:
Direct Download
THANK YOU
download torrent
  Direct Downloadsponsored

Sylvia Saint Double anal club torrent

Information about the torrent Sylvia Saint Double anal club. Seeders, leechers and torrent status is updated everyday.

If you want to download the double anal torrent Sylvia Saint Double anal club you will need a torrent client.

Torrent Metasearch.

tracker
seeders
leechers
↓ torrent client compatible list

↑ hide torrent client compatible list

Help torrentproject.se to stay alive .
Add links of torrentproject.se in your favorite forum, blog, youtube, facebook, twitter etc.
reviews
140
torrent contents

Sylvia Saint Double anal club.wmv torrent

Sylvia Saint Double anal club.wmv122.04 Mb torrent search

Sample info:
Duration: 00:18:55.40, start: 1.579000, bitrate: 901 kb/s
Stream #0.0(swe): Audio: wmav2, 44100 Hz, 2 channels, s16, 128 kb/s
Stream #0.1(swe): Video: wmv3, yuv420p, 720x576, 768 kb/s, 25 tbr, 1k tbn, 1k tbc
screenshots
Sylvia Saint Double anal torrent screenshot 20679494B9D0E1E3020F90016EF0DB6A0E11FF09 Sylvia Saint Double anal  torrent screenshot 20679494b9d0e1e3020f90016ef0db6a0e11ff09 torrent Sylvia Saint Double anal
Sylvia Saint Double anal club.wmv images are auto generated please report any inapropriate images
 

related search cloud

 club  anal  double  saint  sylvia